[bittorrent] gd1982-02-20s1.nak300.schley.137591.flac1644

Automated Mailer noreply-bt.e at etree.org
Tue Jan 17 01:08:19 UTC 2017


Band:           Grateful Dead
Torrent Name:   gd1982-02-20s1.nak300.schley.137591.flac1644
Uploaded by:    nfagdtrfb
DB Link:        
Details:        http://bt.etree.org/details.php?id=590853

Contact the seeder at http://db.etree.org/nfagdtrfb

If the link to this show does not work, it was probably removed for
being non-trade-friendly.

Description / text file:
-------------------------
GRATEFUL DEAD
Golden Hall
San Diego CA
02-20-1982
First Set

16bit/44.1kHz file-set

s1t01 Jack Straw
s1t02 They Love Each Other
s1t03 C.C. Rider
s1t04 Tennessee Jed
s1t05 Mama Tried >
s1t06 Mexicali Blues
s1t07 To Lay Me Down >
s1t08 Let it Grow

AUD: Nakamichi CM300/CP4 shotguns > Sony TC-D5 > Hitachi ME-Metal, 
FOB recording by Brian Schley.

Transfer: MAC > Nakamichi CR-5A > Edirol FA-66 > Wavelab 2448 > 
CD-Wave (24bit output) > R8Brain > TLH > FLAC 1644 tagged. 
Transferred by Andrew F. 01/2017

Note: ID-94410 patches; crowd before TLEO 0:00 > 0:09, last note 
To Lay Me Down 8:42 > Let it Grow 0:10. Sorry, tape #2 is lost :( 
Thanks Jon Pasternak & Charlie McGuth for organizing this project!

    length     expanded size    cdr  WAVE problems  fmt   ratio  filename
     5:59.57       63461708 B   ---   --   ---xx   flac  0.6111  gd1982-02-20s1t01.flac
     8:10.48       86548940 B   ---   --   ---xx   flac  0.6016  gd1982-02-20s1t02.flac
     7:55.64       83940572 B   ---   --   ---xx   flac  0.6153  gd1982-02-20s1t03.flac
     8:23.61       88872716 B   ---   --   ---xx   flac  0.6175  gd1982-02-20s1t04.flac
     3:03.69       32443532 B   ---   --   ---xx   flac  0.6256  gd1982-02-20s1t05.flac
     4:52.62       51654668 B   ---   --   ---xx   flac  0.6328  gd1982-02-20s1t06.flac
     8:48.19       93183932 B   ---   --   ---xx   flac  0.5899  gd1982-02-20s1t07.flac
    12:06.29      128134652 B   ---   --   ---xx   flac  0.6302  gd1982-02-20s1t08.flac
    59:21.34      628240720 B                            0.6145  (8 files)

No errors occured.




More information about the bittorrent mailing list