[bittorrent] gd1982-02-20s1.nak300.schley.137590.flac2448

Automated Mailer noreply-bt.e at etree.org
Tue Jan 17 01:08:15 UTC 2017


Band:           Grateful Dead
Torrent Name:   gd1982-02-20s1.nak300.schley.137590.flac2448
Uploaded by:    nfagdtrfb
DB Link:        
Details:        http://bt.etree.org/details.php?id=590852

Contact the seeder at http://db.etree.org/nfagdtrfb

If the link to this show does not work, it was probably removed for
being non-trade-friendly.

Description / text file:
-------------------------
GRATEFUL DEAD
Golden Hall
San Diego CA
02-20-1982
First Set

24bit/48kHz file-set

s1t01 Jack Straw
s1t02 They Love Each Other
s1t03 C.C. Rider
s1t04 Tennessee Jed
s1t05 Mama Tried >
s1t06 Mexicali Blues
s1t07 To Lay Me Down >
s1t08 Let it Grow

AUD: Nakamichi CM300/CP4 shotguns > Sony TC-D5 > Hitachi ME-Metal, 
FOB recording by Brian Schley.

Transfer: MAC > Nakamichi CR-5A > Edirol FA-66 > Wavelab 2448 > 
CD-Wave (24bit output) > TLH > FLAC 2448 tagged. Transferred by 
Andrew F. 01/2017

Note: ID-94410 patches; crowd before TLEO 0:00 > 0:09, last note 
To Lay Me Down 8:42 > Let it Grow 0:10. Sorry, tape #2 is lost :( 
Thanks Jon Pasternak & Charlie McGuth for organizing this project!

    length     expanded size    cdr  WAVE problems  fmt   ratio  filename
     5:59.760     103610924 B   cxx   --   ---xx   flac  0.7342  gd1982-02-20s1t01.flac
     8:10.640     141304364 B   cxx   --   ---xx   flac  0.7287  gd1982-02-20s1t02.flac
     7:55.853     137045804 B   cxx   --   ---xx   flac  0.7373  gd1982-02-20s1t03.flac
     8:23.813     145098284 B   cxx   --   ---xx   flac  0.7386  gd1982-02-20s1t04.flac
     3:03.920      52969004 B   cxx   --   ---xx   flac  0.7439  gd1982-02-20s1t05.flac
     4:52.827      84334124 B   cxx   --   ---xx   flac  0.7482  gd1982-02-20s1t06.flac
     8:48.253     152137004 B   cxx   --   ---xx   flac  0.7214  gd1982-02-20s1t07.flac
    12:06.376     209196248 B   cxx   --   ---xx   flac  0.7463  gd1982-02-20s1t08.flac
    59:21.442    1025695756 B                            0.7367  (8 files)

No errors occured.




More information about the bittorrent mailing list