[bittorrent] gd1977-05-08.137569.mtx.dusborne.flac24

Automated Mailer noreply-bt.e at etree.org
Mon Jan 16 23:20:23 UTC 2017


Band:           Grateful Dead
Torrent Name:   gd1977-05-08.137569.mtx.dusborne.flac24
Uploaded by:    greendude
DB Link:        
Details:        http://bt.etree.org/details.php?id=590848

Contact the seeder at http://db.etree.org/greendude

If the link to this show does not work, it was probably removed for
being non-trade-friendly.

Description / text file:
-------------------------
Grateful Dead
May 8, 1977
Barton Hall 
Cornell University
Ithaca, NY

3 Source Matrix

Soundboard (shnid:4982)
-----------------------------------------------------------------------------
gd.77-05-08.mtx.Betty-eaton.4982.sbeok.flac16

Lineage: 
Betty Board Portion -- Master 7" Nagra reels 1/2 track @ 7.5ips>Sony PCM 501. Playback on Sony PCM 701>DAT (Digital Transfer) -- Rob Eaton DBX Decoding (Spring '99) Playback on Panasonic 4100 DAT>DB 924 D/A>Dolby 361's w/dbx K9-22 Cards>DB 124 A/D>Neve Capricorn (Digital mixing console)>DB 300S>Panasonic 4100 DAT>DAT>Digi Coax Cable>Tascam CD-RW 700>CDR (x1)>SHN (Rob Eaton remaster)

Audience Portion -- Steve Maizner's Sony ECM-990>Sony TC-152 aud master>First Gen Reel>played directly to hard drive.  The excellent aud splices were normalized and patched using ProTools by Karen Hicks 

Culled from a May 6, 1999 post by Rob Eaton to dnc --

I recently re-decoded 5/5/77 and 5/8/77. I went into Right Track Studios in NYC (my home base studio ) set up in studio B (which is the premier state of the art Digital Music Studio in world). I had clean dat copies (provided by Tim Daulton) that were NOT decoded. I set up a chain consisting of: Panasonic Sv4100 AES out-->DB Technologies 924AD (24bit/96k capability)-->Dolby 361 Modules w/DBX K9-22 cards-->Neve Capricorn 32bit point processing/full 24bit Digital Console-->DB Technologies 122s 24bit/16bit conversion and 44.1k/48k sample rate conversion-->Panasonic Sv4100 Dat AES in. This is State of the Art Technology, getting as much of the music that was on the tapes as possible. The thing about DBX that nobody else got is that in order to decode it properly the volume into the decoder has to be exact, otherwise the tapes can be too bass heavy or too bright and compressed. These tapes are absolutely the best possible reproductions of the dig tapes made from the masters (I only wish I
  had the actual reels so I could do a proper azimuth adjustment on them). 

Seeded to etree by darrin (dnsacks at usa.net) august 2001 

Notes:
Archive shn set > to disc (Sonic Record Now) 3/05

Flac encoding notes:
All processing with Trader's Little Helper
Shn - st5 generated
Shn > Flac ( level 8 )
Flac - st5 generated and matched to Shn st5
B. Proctor 4-12-08

Audience (shnid:117027)
-----------------------------------------------------------------------------------------------------
gd77-05-08.ecm33p.moore.berger.miller.117027.flac24

File type 24 bit

source: aud taped by Jerry Moore
	
a)cassette master>10.5" reel @ 7.5 ips, dolby b provides a majority of the show,
b)Scarlet>Fire provided by cassette master patched from same rig>JM's cassette>reel (as above)
b)The One More Sat Nite encore is from the newly discovered original cassette master 
and has only been included in previous seeds from the 1st gen reel

lineage for source 1 (with exceptions noted above):  
aud cassette master: sony ecm 33p's>sony tc-153, maxell udxLII90's/dolby b>
aud 1st gen: made on Sony TC-755 w/Teac an-180 dolby unit, Scotch Classic 10.5" reels

transfer:
technics rs-1506 open reel>teac an-180 dolby b unit>tascam hd-p2 24/96>flac
encore: nak dragon>tascam hd-p2 24/96>pc>flac
new transfers by Rob Berger spring 2011

mastering, pitch correction, and seeded by Charlie Miller 
November 10, 2011

Audience (shnid:29303)
-----------------------------------------------------------------------------------------------------
gd1977-05-08.shure57.stevenson.29303.flac16

Handheld Shure 57's,10 Feet From Stage,DFC>TC152>MC
MC>CDR>EAC>WAV>FLAC

Notes:
-10 Feet From Stage=Great Instrement Pickup,
 Vocals A Bit Lower Than Moore's Copy.
-A Few Pauses But Not Many,Tape Filp After D01T08,D03T03
 Flip Durning NFA Crossfaded And Is Barely Noticeable,
 Probably Lost 3-4 Sec's 
-Minimal Crowd Chatter, But With Handheld Mic's, Up Front,
 there Are A Few Spots Where In An Ideal World, A Few People
 Would Have Been Standing Somewhere Else.
-if Anyone Wants To  Matrix This Feel Free, I'd Love To Hear It!

Recording And Transfer:Jeff Stevenson
--------------------------------------------------------------------------------------------------
---Thank you Betty Cantor-Jackson, Jerry Moore and Jeff Stevenson for recording the show.
---Thank you Rob Eaton and Karen Hicks for your work on the SBD.
---Thank you Darren Sacks for originally seeding the SBD for us all to enjoy.
---Thank you Rob Berger for the AUD transfer.(shnid:117027)
---Thank you Charlie Miller for your work on the AUD.(shnid:117027)
---Thank you Germain for your advice, encouragement, guidance and seeding.

Matrix by dusborne

01-12-2017
-----------------------------------------------------------------------------------------------------
Set 1

101 - gd77-05-08s1t01 - Tuning 
102 - gd77-05-08s1t02 - Minglewood Blues 
103 - gd77-05-08s1t03 - Loser 
104 - gd77-05-08s1t04 - El Paso 
105 - gd77-05-08s1t05 - They Love Each Other 
106 - gd77-05-08s1t06 - Jack Straw 
107 - gd77-05-08s1t07 - Deal 
108 - gd77-05-08s1t08 - Lazy Lightning ->  
109 - gd77-05-08s1t09 - Supplication 
110 - gd77-05-08s1t10 - Brown Eyed Women 
111 - gd77-05-08s1t11 - Mama Tried 
112 - gd77-05-08s1t12 - Row Jimmy 
113 - gd77-05-08s1t13 - Dancin' In the Streets

Set 2
 
201 - gd77-05-08s2t01 - Take A Step Back 
202 - gd77-05-08s2t02 - Scarlet Begonias -> 
203 - gd77-05-08s2t03 - Fire on the Mountain 
204 - gd77-05-08s2t04 - Estimated Prophet 
205 - gd77-05-08s2t05 - Saint Stephen ->
206 - gd77-05-08s2t06 - Not Fade Away -> 
207 - gd77-05-08s2t07 - Saint Stephen -> 
208 - gd77-05-08s2t08 - Morning Dew 
   
Encore 
209 - gd77-05-08s2t09 - One More Saturday Night
---------------------------------------------------------------------------------------------

Tagging notes:
Show information is embedded within the header
of each flac file. It will display on any player 
capable of directly playing flac files. 
If converted to wav during processing, all tags 
will be stripped, however audio data will remain 
unaffected. If you must transcode to a lossy format, 
do so directly Flac > Lossy.
Use st5 to validate audio integrity.
Md5 values will change if tagging is altered.

Dave Usborne 01-12-2017
----------------------------------------------------------------------------------------

length     expanded size    cdr  WAVE problems  fmt   ratio  filename
     0:40.000      23040044 B   cxx   --   ---xx   flac  0.5437  gd77-05-08s1t01.flac
     6:05.560     210562604 B   cxx   --   ---xx   flac  0.5935  gd77-05-08s1t02.flac
     8:50.280     305441324 B   cxx   --   ---xx   flac  0.5845  gd77-05-08s1t03.flac
     5:23.093     186101804 B   cxx   --   ---xx   flac  0.5750  gd77-05-08s1t04.flac
     9:11.853     317867564 B   cxx   --   ---xx   flac  0.5716  gd77-05-08s1t05.flac
     8:04.907     279306284 B   cxx   --   ---xx   flac  0.5874  gd77-05-08s1t06.flac
     7:28.467     258316844 B   cxx   --   ---xx   flac  0.5889  gd77-05-08s1t07.flac
     3:29.480     120660524 B   cxx   --   ---xx   flac  0.6093  gd77-05-08s1t08.flac
     5:27.573     188682284 B   cxx   --   ---xx   flac  0.5896  gd77-05-08s1t09.flac
     6:49.720     235998764 B   cxx   --   ---xx   flac  0.5794  gd77-05-08s1t10.flac
     3:51.720     133470764 B   cxx   --   ---xx   flac  0.5797  gd77-05-08s1t11.flac
    13:03.267     451161644 B   cxx   --   ---xx   flac  0.5784  gd77-05-08s1t12.flac
    16:18.520     563627564 B   cxx   --   ---xx   flac  0.6158  gd77-05-08s1t13.flac
     1:57.987      67960364 B   cxx   --   ---xx   flac  0.5478  gd77-05-08s2t01.flac
    11:30.373     397655084 B   cxx   --   ---xx   flac  0.6152  gd77-05-08s2t02.flac
    15:16.427     527861804 B   cxx   --   ---xx   flac  0.6147  gd77-05-08s2t03.flac
    13:38.827     471644204 B   cxx   --   ---xx   flac  0.5479  gd77-05-08s2t04.flac
     4:46.720     165150764 B   cxx   --   ---xx   flac  0.6111  gd77-05-08s2t05.flac
    17:17.347     597511724 B   cxx   --   ---xx   flac  0.6182  gd77-05-08s2t06.flac
     0:55.080      31726124 B   cxx   --   ---xx   flac  0.6274  gd77-05-08s2t07.flac
    17:26.573     602826284 B   cxx   --   ---xx   flac  0.6027  gd77-05-08s2t08.flac
     5:23.947     186593324 B   cxx   --   ---xx   flac  0.6320  gd77-05-08s2t09.flac
   182:57.720    6323167688 B                            0.5953  (22 files)



More information about the bittorrent mailing list