[bittorrent] jg1971-09-24.jgms.sbd.scotton.miller.sirmick..137584.sbeok.flac16 e

Automated Mailer noreply-bt.e at etree.org
Mon Jan 16 15:17:02 UTC 2017


Band:           Garcia
Torrent Name:   jg1971-09-24.jgms.sbd.scotton.miller.sirmick..137584.sbeok.flac16 e
Uploaded by:     SIRMick
DB Link:        
Details:        http://bt.etree.org/details.php?id=590838

Contact the seeder at http://db.etree.org/ SIRMick

If the link to this show does not work, it was probably removed for
being non-trade-friendly.

Description / text file:
-------------------------
Jerry Garcia and Merl Saunders
The Lion Share
San Anselmo, CA
09/24/71

Early and Late Shows


Source: sbd > reel master > Dat
        Provided by Paul Scotton  
Transfer: Dat > Sony R500 > Sound Devices 744T > wav 16/44.1
          Transferred by Charlie Miller
Lienage: wav 16/44.1 > Adobe Audition 3.0.1 > iZotope RX4 Advanced >
         iZotope Ozone 5 Advanced > CD Wave > TLH > Flac16


Early Show

01   intro/tuning
02   Save Mother Earth Instrumental > 
03   Imagine Instrumental
04   One Kind Favor
05   I Was Made To Love Her Instrumental
06   Baby, What Do You Want Me To Do?
07   Down Around Biloxi


Late Show

01   Hi-Heel Sneakers
02   Man-Child Instrumental > 
03   Summertime Instrumental
04   That's The Touch I Like > 
05   Annie Had A Baby >
06   WPLJ (White Port And Lemon Juice)



Jerry Garcia - guitar, vocals
Merl Saunders - keyboards, vocals
John Kahn - bass
Bill Kreutzmann - drums
Tom Fogerty - guitar, vocals



Thanks to Paul and Charlie

Thanks to Joe.B. Jones for help with pitch correction.


edited and mastered
SIRMick
January 2017


shntool output:

    length     expanded size    cdr  WAVE problems  fmt   ratio  filename
     1:03.720      16860356 B   cxx   --   ---xx   flac  0.6955  jgms1971-09-24.early-t01.flac
    11:28.107     182073068 B   cxx   --   ---xx   flac  0.7787  jgms1971-09-24.early-t02.flac
     5:27.520      86661836 B   cxx   --   ---xx   flac  0.7737  jgms1971-09-24.early-t03.flac
     8:48.253     139775876 B   cxx   --   ---xx   flac  0.7923  jgms1971-09-24.early-t04.flac
     9:55.453     157556996 B   cxx   --   ---xx   flac  0.8019  jgms1971-09-24.early-t05.flac
     3:49.467      60716924 B   cxx   --   ---xx   flac  0.7710  jgms1971-09-24.early-t06.flac
     6:57.027     110345300 B   cxx   --   ---xx   flac  0.7428  jgms1971-09-24.early-t07.flac
     8:50.74       93666092 B   ---   --   ---xx   flac  0.6763  jgms1971-09-24.late-t01.flac
    10:18.11      109041116 B   ---   --   ---xx   flac  0.6581  jgms1971-09-24.late-t02.flac
    10:23.49      110012492 B   ---   --   ---xx   flac  0.5961  jgms1971-09-24.late-t03.flac
     6:12.24       65677292 B   ---   --   ---xx   flac  0.6698  jgms1971-09-24.late-t04.flac
     2:53.60       30658364 B   ---   --   ---xx   flac  0.6772  jgms1971-09-24.late-t05.flac
     3:21.01       35458796 B   ---   --   ---xx   flac  0.6801  jgms1971-09-24.late-t06.flac
    89:29.467    1198504508 B                            0.7309  (13 files)






More information about the bittorrent mailing list