[bittorrent] Umphrey's McGee The Tabernacle Atlanta, Georgia 1/15/2017 (Schoeps CCM4V'S FOB)

Automated Mailer noreply-bt.e at etree.org
Mon Jan 16 06:34:26 UTC 2017


Band:           Umphrey's McGee
Torrent Name:   Umphrey's McGee The Tabernacle Atlanta, Georgia 1/15/2017 (Schoeps CCM4V'S FOB)
Uploaded by:    zmanatl
DB Link:        
Details:        http://bt.etree.org/details.php?id=590833

Contact the seeder at http://db.etree.org/zmanatl

If the link to this show does not work, it was probably removed for
being non-trade-friendly.

Description / text file:
-------------------------
Umphrey's McGee
The Tabernacle
Atlanta, Georgia
1/15/2017

Source: Schoeps CCM4V's>Lunatec V2>Benchmark AD2K>
Sound Devices 722 (24/44)
FOB/DFC/KFC/ZFC/AARP Clamped To The Rail At The Front Of The Balcony
DSP: Sound Devices 722>Sound Forge 10.0>CD Wave>flac(16)
ID3 Tagged In Foobar 2000
Recorded By: Z-Man
Seeded By: Z-Man

Disc I 1st Set

01 Rocker 2
02 *No Diablo
03 Kabump >
04 2nd Sel 
05 Band Introductions
06 #5
07 Cut Off >
08 Drum Solo 
09 Utopian Fir

Disc II 2nd Set

01 Bright Lights, Big City
02 Cemetary Walk I >
03 Cemetary Walk II
04 The Song Remains The Same

Disc III 2nd Set Con't

01 1348 >
02 In The Kitchen >
03 Higgins >
04 1348
Encore:
05 Brendan Banter
06 @Pay The Snuka 
 
* Played For Rob Turner
@ Dedicated To The Passing Of Jimmy "Superfly" Snooka

um2017-01-15d01t01.flac:b785aa2199865672d206294a21dcc317
um2017-01-15d01t02.flac:2c5fd194a9e61266e5b1d108ea46d2a9
um2017-01-15d01t03.flac:544c18ec1c86e157f7144bd88dc30b96
um2017-01-15d01t04.flac:ec9658d8453974271509cb3137e029e4
um2017-01-15d01t05.flac:21ccdfaa82269d7de02fa7c00e6475b7
um2017-01-15d01t06.flac:a69fb83667c5cb20e82240cc8f7e8d7e
um2017-01-15d01t07.flac:c51e55d3dae96a959220334edac3f78e
um2017-01-15d01t08.flac:92ce1e436f3eb7cdf6089751102f630b
um2017-01-15d01t09.flac:8924246bd57cde315623f9e75219fe76
um2017-01-15d02t01.flac:a8962c3b4794b701fdbb5bef6f47a028
um2017-01-15d02t02.flac:5d4eab2dbf85b5fee6047d2350dfdd11
um2017-01-15d02t03.flac:12d9dcab7ae4cb0fca5e2a0f3f65d95d
um2017-01-15d02t04.flac:6f2aa4e14885e8539473be432fa0ecbe
um2017-01-15d03t01.flac:95ecf635dfafedfc8c805a90d8ca9d13
um2017-01-15d03t02.flac:2acaefab39ef55601ceb741032d52818
um2017-01-15d03t03.flac:19a2939f81748d8c99d439af91284d04
um2017-01-15d03t04.flac:3ebc88c4b0f223dc63ad045e8acffe8b
um2017-01-15d03t05.flac:b2dc215e510a87e1e79dd98f7f8ec18a
um2017-01-15d03t06.flac:57845fac4dccbf310f417c1f59e5cfa2

 length     expanded size    cdr  WAVE problems  fmt   ratio  filename
    10:01.63      106164620 B   ---   --   ---xx   flac  0.5125  um2017-01-15d01t01.flac
     5:56.40       62892524 B   ---   --   ---xx   flac  0.4901  um2017-01-15d01t02.flac
    11:55.08      126144860 B   ---   --   ---xx   flac  0.4842  um2017-01-15d01t03.flac
     6:38.30       70277804 B   ---   --   ---xx   flac  0.5149  um2017-01-15d01t04.flac
     0:48.15        8502524 B   ---   --   ---xx   flac  0.4344  um2017-01-15d01t05.flac
    13:54.48      147230540 B   ---   --   ---xx   flac  0.4895  um2017-01-15d01t06.flac
     6:13.57       65931308 B   ---   --   ---xx   flac  0.5037  um2017-01-15d01t07.flac
     1:22.61       14608316 B   ---   --   ---xx   flac  0.3869  um2017-01-15d01t08.flac
    14:11.28      150182300 B   ---   --   ---xx   flac  0.4905  um2017-01-15d01t09.flac
    10:31.63      111456620 B   ---   --   ---xx   flac  0.5040  um2017-01-15d02t01.flac
     7:38.24       80847692 B   ---   --   ---xx   flac  0.4956  um2017-01-15d02t02.flac
    12:48.10      135498764 B   ---   --   ---xx   flac  0.5066  um2017-01-15d02t03.flac
     5:35.66       59249276 B   ---   --   ---xx   flac  0.5314  um2017-01-15d02t04.flac
    10:10.59      107742812 B   ---   --   ---xx   flac  0.4640  um2017-01-15d03t01.flac
     8:25.65       89234924 B   ---   --   ---xx   flac  0.4861  um2017-01-15d03t02.flac
    11:58.74      126829292 B   ---   --   ---xx   flac  0.5062  um2017-01-15d03t03.flac
     3:27.55       36644204 B   ---   --   ---xx   flac  0.5401  um2017-01-15d03t04.flac
     0:47.26        8351996 B   ---   --   ---xx   flac  0.4353  um2017-01-15d03t05.flac
     8:42.63       92229020 B   ---   --   ---xx   flac  0.4938  um2017-01-15d03t06.flac
   151:10.30     1600019396 B                            0.4960  (19 files)











More information about the bittorrent mailing list