[bittorrent] gd1982-04-09.nak300.craigl.137582.flac1644

Automated Mailer noreply-bt.e at etree.org
Mon Jan 16 00:13:12 UTC 2017


Band:           Grateful Dead
Torrent Name:   gd1982-04-09.nak300.craigl.137582.flac1644
Uploaded by:    nfagdtrfb
DB Link:        
Details:        http://bt.etree.org/details.php?id=590825

Contact the seeder at http://db.etree.org/nfagdtrfb

If the link to this show does not work, it was probably removed for
being non-trade-friendly.

Description / text file:
-------------------------
GRATEFUL DEAD
Community War Memorial
Rochester NY
04-09-1982

16bit/44.1kHz file-set

s1t01 Alabama Getaway >
s1t02 Greatest Story Ever Told
s1t03 Dire Wolf >
s1t04 C.C. Rider
s1t05 Birdsong
s1t06 It's All Over Now
s1t07 Loser
s1t08 Minglewood Blues
s1t09 China Cat Sunflower >
s1t10 I Know You Rider

s2t01 Women are Smarter
s2t02 To Lay Me Down
s2t03 Lost Sailor >
s2t04 Saint of Circumstance >
s2t05 Drums >
s2t06 Space >
s2t07 The Other One >
s2t08 Stella Blue >
s2t09 Goin' Down the Road >
s2t10 Satisfaction
s2t11 Encore: Brokedown Palace

AUD: Nakamichi CM300/CP4 shotguns > lead deck (?) > Sony TC-D5 > 
Maxell XLII 90's, recording by Craig L.

Transfer: MAC > Nakamichi CR-5A > Edirol FA-66 > Wavelab 2448 > 
CD-Wave (24bit output) > R8Brain > TLH > FLAC 1644 tagged. 
Transferred by Andrew F. 01/2017

Note: Nice recording, but with some tight pauses and tape-flip 
gaps. ID-136855 patches; Alabama 0:00 > 0:13, Loser 0:00 > 0:06, 
Minglewood 0:00 > 0:15, China Cat 0:00 > 0:12, Drums 0:40 > 2:12, 
Drums 7:31 > 8:27, Brokedown 0:00 > 0:04, and ID-103245 Drums 
8:27 > 9:58. With thanks to Craig L. and Jon Pasternak!

    length     expanded size    cdr  WAVE problems  fmt   ratio  filename
     5:02.43       53373980 B   ---   --   ---xx   flac  0.6662  gd1982-04-09s1t01.flac
     4:14.43       44906780 B   ---   --   ---xx   flac  0.6596  gd1982-04-09s1t02.flac
     3:25.16       36199676 B   ---   --   ---xx   flac  0.6565  gd1982-04-09s1t03.flac
     8:05.53       85678700 B   ---   --   ---xx   flac  0.6523  gd1982-04-09s1t04.flac
     8:50.67       93649628 B   ---   --   ---xx   flac  0.6483  gd1982-04-09s1t05.flac
     8:21.11       88402316 B   ---   --   ---xx   flac  0.6734  gd1982-04-09s1t06.flac
     7:03.67       74774828 B   ---   --   ---xx   flac  0.6694  gd1982-04-09s1t07.flac
     7:16.07       76926908 B   ---   --   ---xx   flac  0.6707  gd1982-04-09s1t08.flac
     5:25.28       57395900 B   ---   --   ---xx   flac  0.6743  gd1982-04-09s1t09.flac
     5:43.29       60573452 B   ---   --   ---xx   flac  0.6725  gd1982-04-09s1t10.flac
     7:10.32       75927308 B   ---   --   ---xx   flac  0.6001  gd1982-04-09s2t01.flac
     9:12.26       97433996 B   ---   --   ---xx   flac  0.5690  gd1982-04-09s2t02.flac
     6:27.60       68407964 B   ---   --   ---xx   flac  0.5679  gd1982-04-09s2t03.flac
     7:26.74       78848492 B   ---   --   ---xx   flac  0.6012  gd1982-04-09s2t04.flac
    10:09.73      107599340 B   ---   --   ---xx   flac  0.5513  gd1982-04-09s2t05.flac
     8:19.45       88129484 B   ---   --   ---xx   flac  0.5409  gd1982-04-09s2t06.flac
     7:00.42       74186828 B   ---   --   ---xx   flac  0.5916  gd1982-04-09s2t07.flac
     7:31.45       79662284 B   ---   --   ---xx   flac  0.5516  gd1982-04-09s2t08.flac
     6:14.65       66126524 B   ---   --   ---xx   flac  0.6189  gd1982-04-09s2t09.flac
     6:49.21       72197036 B   ---   --   ---xx   flac  0.6258  gd1982-04-09s2t10.flac
     5:31.20       58435484 B   ---   --   ---xx   flac  0.5849  gd1982-04-09s2t11.flac
   145:23.42     1538836908 B                            0.6164  (21 files)

No errors occured.




More information about the bittorrent mailing list