[bittorrent] gd1982-04-09.nak300.craigl.137581.flac2448

Automated Mailer noreply-bt.e at etree.org
Mon Jan 16 00:13:09 UTC 2017


Band:           Grateful Dead
Torrent Name:   gd1982-04-09.nak300.craigl.137581.flac2448
Uploaded by:    nfagdtrfb
DB Link:        
Details:        http://bt.etree.org/details.php?id=590824

Contact the seeder at http://db.etree.org/nfagdtrfb

If the link to this show does not work, it was probably removed for
being non-trade-friendly.

Description / text file:
-------------------------
GRATEFUL DEAD
Community War Memorial
Rochester NY
04-09-1982

24bit/48kHz file-set

s1t01 Alabama Getaway >
s1t02 Greatest Story Ever Told
s1t03 Dire Wolf >
s1t04 C.C. Rider
s1t05 Birdsong
s1t06 It's All Over Now
s1t07 Loser
s1t08 Minglewood Blues
s1t09 China Cat Sunflower >
s1t10 I Know You Rider

s2t01 Women are Smarter
s2t02 To Lay Me Down
s2t03 Lost Sailor >
s2t04 Saint of Circumstance >
s2t05 Drums >
s2t06 Space >
s2t07 The Other One >
s2t08 Stella Blue >
s2t09 Goin' Down the Road >
s2t10 Satisfaction
s2t11 Encore: Brokedown Palace

AUD: Nakamichi CM300/CP4 shotguns > lead deck (?) > Sony TC-D5 > 
Maxell XLII 90's, recording by Craig L.

Transfer: MAC > Nakamichi CR-5A > Edirol FA-66 > Wavelab 2448 > 
CD-Wave (24bit output) > TLH > FLAC 2448 tagged. Transferred by 
Andrew F. 01/2017

Note: Nice recording, but with some tight pauses and tape-flip 
gaps. ID-136855 patches; Alabama 0:00 > 0:13, Loser 0:00 > 0:06, 
Minglewood 0:00 > 0:15, China Cat 0:00 > 0:12, Drums 0:40 > 2:12, 
Drums 7:31 > 8:27, Brokedown 0:00 > 0:04, and ID-103245 Drums 
8:27 > 9:58. With thanks to Craig L. and Jon Pasternak!

    length     expanded size    cdr  WAVE problems  fmt   ratio  filename
     5:02.573      87141164 B   cxx   --   ---xx   flac  0.7676  gd1982-04-09s1t01.flac
     4:14.573      73317164 B   cxx   --   ---xx   flac  0.7640  gd1982-04-09s1t02.flac
     3:25.213      59101484 B   cxx   --   ---xx   flac  0.7619  gd1982-04-09s1t03.flac
     8:05.707     139883564 B   cxx   --   ---xx   flac  0.7593  gd1982-04-09s1t04.flac
     8:50.893     152897324 B   cxx   --   ---xx   flac  0.7567  gd1982-04-09s1t05.flac
     8:21.147     144330284 B   cxx   --   ---xx   flac  0.7725  gd1982-04-09s1t06.flac
     7:03.893     122081324 B   cxx   --   ---xx   flac  0.7702  gd1982-04-09s1t07.flac
     7:16.093     125594924 B   cxx   --   ---xx   flac  0.7709  gd1982-04-09s1t08.flac
     5:25.373      93707564 B   cxx   --   ---xx   flac  0.7735  gd1982-04-09s1t09.flac
     5:43.376      98892242 B   cxx   --   ---xx   flac  0.7716  gd1982-04-09s1t10.flac
     7:10.427     123962924 B   cxx   --   ---xx   flac  0.7267  gd1982-04-09s2t01.flac
     9:12.347     159075884 B   cxx   --   ---xx   flac  0.7086  gd1982-04-09s2t02.flac
     6:27.800     111686444 B   cxx   --   ---xx   flac  0.7068  gd1982-04-09s2t03.flac
     7:26.987     128732204 B   cxx   --   ---xx   flac  0.7276  gd1982-04-09s2t04.flac
    10:09.973     175672364 B   cxx   --   ---xx   flac  0.6954  gd1982-04-09s2t05.flac
     8:19.600     143884844 B   cxx   --   ---xx   flac  0.6904  gd1982-04-09s2t06.flac
     7:00.560     121121324 B   cxx   --   ---xx   flac  0.7212  gd1982-04-09s2t07.flac
     7:31.600     130060844 B   cxx   --   ---xx   flac  0.6970  gd1982-04-09s2t08.flac
     6:14.867     107961644 B   cxx   --   ---xx   flac  0.7382  gd1982-04-09s2t09.flac
     6:49.280     117872684 B   cxx   --   ---xx   flac  0.7427  gd1982-04-09s2t10.flac
     5:31.262      95403572 B   cxx   --   ---xx   flac  0.7166  gd1982-04-09s2t11.flac
   145:23.545    2512381770 B                            0.7369  (21 files)

No errors occured.




More information about the bittorrent mailing list