[bittorrent] Umphrey's McGee The Tabernacle Atlanta, Georgia 1/14/2017 (Schoeps CCM4V'S FOB)

Automated Mailer noreply-bt.e at etree.org
Sun Jan 15 07:56:28 UTC 2017


Band:           Umphrey's McGee
Torrent Name:   Umphrey's McGee The Tabernacle Atlanta, Georgia 1/14/2017 (Schoeps CCM4V'S FOB)
Uploaded by:    zmanatl
DB Link:        
Details:        http://bt.etree.org/details.php?id=590807

Contact the seeder at http://db.etree.org/zmanatl

If the link to this show does not work, it was probably removed for
being non-trade-friendly.

Description / text file:
-------------------------
Umphrey's McGee
The Tabernacle
Atlanta, Georgia
1/14/2017

Source: Schoeps CCM4V's>Lunatec V2>Benchmark AD2K>
Sound Devices 722 (24/44)
FOB/DFC/KFC/ZFC/AARP Clamped To The Rail At Front Of Balcony
DSP: Sound Devices 722>Sound Forge 10.0>CD Wave>flac(16)
ID3 Tagged In Foobar 2000
Recorded By: Z-Man
Seeded By: Z-Man

Disc I 1st Set

01 North Route >
02 Similiar Skin >
03 Wappy Sprayberry >
04 Hajimemishite
05 Attachments
06 Deeper
07 Miss Tinkles Overture

Disc II 2nd Set

01 Plunger >
02 Glory >
03 Plunger >
04 The Triple Wide >
05 The Linear >
06 Push The Pig >
07 Hurt Bird Bath >
08 Full Frontal >
09 Hurt Bird Bath

Disc IiI 2nd Set Con't

01 Piranhas 
02 Forty-Six & 2
Encore:
03 Banter
04 Puppet String >
05 We Want The Funk >
06 Puppet String

um2017-01-14d01t01.flac:81fbb46bfe06e9edb9ab5ca7aff0a581
um2017-01-14d01t02.flac:67ca21ea675bc254ead860ec8915d6aa
um2017-01-14d01t03.flac:4e35176c8815a0b44e7bfd8bf8160c3a
um2017-01-14d01t04.flac:ffbc13f125479f2166d8dd9ea2813cf7
um2017-01-14d01t05.flac:6b870735aa0775c7b480638248e881b4
um2017-01-14d01t06.flac:c994a3c3922874dd747bd8a406c4850b
um2017-01-14d01t07.flac:cbd7470a70c3d335067cb6c7fbeccf26
um2017-01-14d02t01.flac:86dc951c192d95bb0e3a1c84dd9baea7
um2017-01-14d02t02.flac:335e7e43b51ac4b5aed891f7ecf60d2a
um2017-01-14d02t03.flac:1fd27d061db339dbcc8d5addc943eee4
um2017-01-14d02t04.flac:2733db24139be767882d14ae9229467e
um2017-01-14d02t05.flac:f3906b1bbfc400e449c3e6054f98d8d0
um2017-01-14d02t06.flac:5d95937e7a3a5082f770f5cbcf76989e
um2017-01-14d02t07.flac:6c4907c96db34deab38b77973964d7fe
um2017-01-14d02t08.flac:b85caa9477741439fc940a484514b076
um2017-01-14d02t09.flac:32c24165eb2e0564ce3ce028e7d9cc8f
um2017-01-14d03t01.flac:25c8e0f5bda29cfdf88e187176621882
um2017-01-14d03t02.flac:949bd1611314820c7326cfe4eca382b4
um2017-01-14d03t03.flac:290445113e9e6cefd16ddc36f5145d9e
um2017-01-14d03t04.flac:fdc721bdc41afd464a19e7bf94d2afcd
um2017-01-14d03t05.flac:0fc85a2147423191e99d3eed0966d426
um2017-01-14d03t06.flac:cf1f5de076a70f0d076461f503390d4d

 length     expanded size    cdr  WAVE problems  fmt   ratio  filename
     4:06.49       43509692 B   ---   --   ---xx   flac  0.4946  um2017-01-14d01t01.flac
    16:51.51      178460396 B   ---   --   ---xx   flac  0.4991  um2017-01-14d01t02.flac
    10:23.11      109923116 B   ---   --   ---xx   flac  0.5087  um2017-01-14d01t03.flac
     6:11.24       65500892 B   ---   --   ---xx   flac  0.4953  um2017-01-14d01t04.flac
     8:28.59       89750012 B   ---   --   ---xx   flac  0.5076  um2017-01-14d01t05.flac
    10:15.19      108530732 B   ---   --   ---xx   flac  0.4701  um2017-01-14d01t06.flac
    11:31.17      121932428 B   ---   --   ---xx   flac  0.5263  um2017-01-14d01t07.flac
     4:31.06       47818556 B   ---   --   ---xx   flac  0.4862  um2017-01-14d02t01.flac
     3:52.64       41075372 B   ---   --   ---xx   flac  0.4856  um2017-01-14d02t02.flac
     2:58.55       31528604 B   ---   --   ---xx   flac  0.4920  um2017-01-14d02t03.flac
    12:30.21      132349436 B   ---   --   ---xx   flac  0.4965  um2017-01-14d02t04.flac
     8:27.52       89557148 B   ---   --   ---xx   flac  0.4952  um2017-01-14d02t05.flac
     8:17.51       87790796 B   ---   --   ---xx   flac  0.5031  um2017-01-14d02t06.flac
     9:27.51      100138796 B   ---   --   ---xx   flac  0.5049  um2017-01-14d02t07.flac
     6:32.30       69219404 B   ---   --   ---xx   flac  0.5290  um2017-01-14d02t08.flac
     1:34.18       16623980 B   ---   --   ---xx   flac  0.5031  um2017-01-14d02t09.flac
     7:19.19       77484332 B   ---   --   ---xx   flac  0.4758  um2017-01-14d03t01.flac
     6:03.50       64150844 B   ---   --   ---xx   flac  0.5228  um2017-01-14d03t02.flac
     0:22.35        3963164 B   ---   --   ---xx   flac  0.4005  um2017-01-14d03t03.flac
     8:20.40       88294124 B   ---   --   ---xx   flac  0.5018  um2017-01-14d03t04.flac
     0:35.63        6322220 B   ---   --   ---xx   flac  0.5360  um2017-01-14d03t05.flac
     4:26.04       46931852 B   ---   --   ---xx   flac  0.5122  um2017-01-14d03t06.flac
   153:08.39     1620855896 B                            0.5009  (22 files)














More information about the bittorrent mailing list