[bittorrent] David Wax Museum Variety Playhouse Atlanta, Georgia 1/13/2017 (Schoeps CCM4V'S FOB)

Automated Mailer noreply-bt.e at etree.org
Sat Jan 14 18:55:15 UTC 2017


Band:           Other
Torrent Name:   David Wax Museum Variety Playhouse Atlanta, Georgia 1/13/2017 (Schoeps CCM4V'S FOB)
Uploaded by:    zmanatl
DB Link:        
Details:        http://bt.etree.org/details.php?id=590798

Contact the seeder at http://db.etree.org/zmanatl

If the link to this show does not work, it was probably removed for
being non-trade-friendly.

Description / text file:
-------------------------
David Wax Museum
Variety Playhouse
Atlanta, Georgia
1/13/2017

Source: Schoeps CCM4V's>Lunatec V2>Benchmark AD2K>
Sound Devices 722 (24/44)
FOB/DFC/KFC/ZFC/AARP Center Section, 4th Row, Between Seats 7 & 8, 7 1/2'
DSP: Sound Devices 722>Sound Forge 10.0>CD Wave>flac(16)
ID3 Tagged In Foobar 2000
Recorded By: Z-Man
Seeded By: Z-Man

Disc I 

01 ?
02 Yes Marie Yes
03 ?
04 Broken Heart
05 ?
06 Leopard Girl
07 ?
08 El Toro Zacamandu
09 ?
10 ?
11 Banter/Band Introductions
12 ?

* Phillip Mayer Played Drums For The Entire Show. He Was Previously A Member
Of David Wax Museum. He Also Played On His Original Drum Kit From Over 15 Years Ago!

david2017-01-13d01t01.flac:042a27c3f29412e1e9da08ae3090491d
david2017-01-13d01t02.flac:bdc4ff20bb5d4625db4c509df35deedf
david2017-01-13d01t03.flac:0119139856647729691378118f1d4e64
david2017-01-13d01t04.flac:5450807d05fbb748c2759da447d0e596
david2017-01-13d01t05.flac:3aad62a725f80d00ff6e8c303ddb7a3f
david2017-01-13d01t06.flac:04f716a70b4748a6c214910636a0c93b
david2017-01-13d01t07.flac:3336f87b24f193996ad853af606f8c9b
david2017-01-13d01t08.flac:099c0aacbe4955afb7829d5dd6e3ea83
david2017-01-13d01t09.flac:3c73cc494c9c2b271aa5c36700fcadfb
david2017-01-13d01t10.flac:c313cde29c72e3277488c38bc10d28b3
david2017-01-13d01t11.flac:dad517d46eab35559370e5a7f4956e2c
david2017-01-13d01t12.flac:0737eb154f8f1e6e285e3d5eff34d15e

length     expanded size    cdr  WAVE problems  fmt   ratio  filename
     3:19.02       35108348 B   ---   --   ---xx   flac  0.4753  david2017-01-13d01t01.flac
     3:59.31       42232556 B   ---   --   ---xx   flac  0.4601  david2017-01-13d01t02.flac
     2:55.56       31001756 B   ---   --   ---xx   flac  0.4970  david2017-01-13d01t03.flac
     2:47.71       29625836 B   ---   --   ---xx   flac  0.5307  david2017-01-13d01t04.flac
     4:45.41       50370476 B   ---   --   ---xx   flac  0.4887  david2017-01-13d01t05.flac
     5:09.71       54674636 B   ---   --   ---xx   flac  0.4832  david2017-01-13d01t06.flac
     3:56.70       41795084 B   ---   --   ---xx   flac  0.4588  david2017-01-13d01t07.flac
     5:32.55       58694204 B   ---   --   ---xx   flac  0.4287  david2017-01-13d01t08.flac
     2:54.39       30785372 B   ---   --   ---xx   flac  0.5022  david2017-01-13d01t09.flac
     4:13.63       44777420 B   ---   --   ---xx   flac  0.4912  david2017-01-13d01t10.flac
     0:47.34        8370812 B   ---   --   ---xx   flac  0.3893  david2017-01-13d01t11.flac
     5:21.51       56744396 B   ---   --   ---xx   flac  0.4843  david2017-01-13d01t12.flac
    45:44.59      484180896 B                            0.4767  (12 files)














More information about the bittorrent mailing list