[bittorrent] gd1982-04-17.137574.m160.streeter.miller.flac16

Automated Mailer noreply-bt.e at etree.org
Sat Jan 14 15:32:00 UTC 2017


Band:           Grateful Dead
Torrent Name:   gd1982-04-17.137574.m160.streeter.miller.flac16
Uploaded by:    norm
DB Link:        
Details:        http://bt.etree.org/details.php?id=590794

Contact the seeder at http://db.etree.org/norm

If the link to this show does not work, it was probably removed for
being non-trade-friendly.

Description / text file:
-------------------------
Grateful Dead - April 17, 1982
Hartford Civic Center - Hartford, CT

Recording Info:
(FOB) Beyer M160 > Cassette Master (Sony TC-D5M/TDK MA-C90)

Transfer Info:
Cassette Master (Nakamichi CR-7A) > Tascam DA-3000 (DSF 1-bit/5.8 MHz) >
KORG AudioGate 4 > Samplitude Pro X3 Suite > FLAC/24
(1 Disc FLAC)

All Transfers and Mastering By Charlie Miller
charliemiller87 at earthlink.net
January 13, 2017

Patch Info:
(FOB) Nakamichi 700 > Cassette Master (shnid=78747) supplies:
Man Smart, Woman Smarter (2:37 - end of track)

Notes:
-- Recorded By Frank Streeter
-- 137573 24bit > 16bit with r8brain

Set 1:
01 - New Minglewood Blues >
02 - Sugaree >
03 - El Paso
04 - Jack-A-Roe >
05 - Little Red Rooster
06 - Tennessee Jed
07 - It's All Over Now
08 - Bird Song >
09 - Man Smart, Woman Smarter

Set 2:
10 - Shakedown Street >
11 - Lost Sailor >
12 - Saint Of Circumstance >
13 - Spanish Jam >
14 - Drums >
15 - Space >
16 - Uncle John's Band >
17 - Not Fade Away >
18 - Wharf Rat >
19 - Around And Around >
20 - One More Saturday Night

Encore:
21 - It's All Over Now, Baby Blue


SHNTOOL OUTPUT:
    length     expanded size    cdr  WAVE problems  fmt   ratio  filename
     7:30.33       79457660 B   ---   --   ---xx   flac  0.6464  01 New Minglewood Blues.flac
    12:07.33      128320460 B   ---   --   ---xx   flac  0.6513  02 Sugaree.flac
     5:22.29       56869052 B   ---   --   ---xx   flac  0.6274  03 El Paso.flac
     4:58.13       52597820 B   ---   --   ---xx   flac  0.6568  04 Jack-A-Roe.flac
     9:19.48       98720540 B   ---   --   ---xx   flac  0.6290  05 Little Red Rooster.flac
     8:54.08       94216460 B   ---   --   ---xx   flac  0.6455  06 Tennessee Jed.flac
     8:21.40       88470524 B   ---   --   ---xx   flac  0.6572  07 It's All Over Now.flac
     9:35.19      101474732 B   ---   --   ---xx   flac  0.6572  08 Bird Song.flac
     6:09.20       65138684 B   ---   --   ---xx   flac  0.6720  09 Man Smart, Woman Smarter.flac
    15:34.65      164910524 B   ---   --   ---xx   flac  0.6454  10 Shakedown Street.flac
     7:20.19       77660732 B   ---   --   ---xx   flac  0.6097  11 Lost Sailor.flac
     7:09.01       75677996 B   ---   --   ---xx   flac  0.6277  12 Saint Of Circumstance.flac
     5:29.35       58117964 B   ---   --   ---xx   flac  0.6022  13 Spanish Jam.flac
     7:29.37       79290668 B   ---   --   ---xx   flac  0.5613  14 Drums.flac
     8:10.18       86478380 B   ---   --   ---xx   flac  0.5460  15 Space.flac
     8:08.05       86095004 B   ---   --   ---xx   flac  0.6491  16 Uncle John's Band.flac
     8:41.08       91923260 B   ---   --   ---xx   flac  0.6263  17 Not Fade Away.flac
     9:44.69      103179932 B   ---   --   ---xx   flac  0.6116  18 Wharf Rat.flac
     3:59.06       42173756 B   ---   --   ---xx   flac  0.6340  19 Around And Around.flac
     4:47.15       50662124 B   ---   --   ---xx   flac  0.6471  20 One More Saturday Night.flac
     7:06.09       75167612 B   ---   --   ---xx   flac  0.6250  21 It's All Over Now, Baby Blue.flac
   165:58.05     1756603884 B                            0.6306  (21 files)




More information about the bittorrent mailing list