[bittorrent] MoHen 2016-12-30Set2.Green Gate Inn. NY.ca14 cards.happyjack16 [1st Time In Circulation]

Automated Mailer noreply-bt.e at etree.org
Sat Jan 14 15:23:04 UTC 2017


Band:           Other
Torrent Name:   MoHen 2016-12-30Set2.Green Gate Inn. NY.ca14 cards.happyjack16  [1st Time In Circulation]
Uploaded by:    dedhed69
DB Link:        
Details:        http://bt.etree.org/details.php?id=590793

Contact the seeder at http://db.etree.org/dedhed69

If the link to this show does not work, it was probably removed for
being non-trade-friendly.

Description / text file:
-------------------------

NEW TO CIRCULATION

MO'HEN
20th Anniversary Show
Green Gate Inn Restaurant
2 W Genesee St, Camillus, NY
December 30, 2016
Friday Show [started just before 11 pm - 2 sets] 
ELECTRIC SET2

A Gratefully Little Deadicated Feat Recording [2016, show # lost count. LOLS]
***16 Bit Version*** 1st TIME IN CIRCULATION 

Recorded, Mastering & Editing by Happy Jack [aka:dedhed69]
Photos, Video & Setlist gathered by Happy Jack & Doug 

 Audience Recording
Location: stage right. which is my left right up to front where they cleared space for me. THANKS !!!
Mic were about 6.5' high directed at there speakers as best as I can tring to stay away from people. Place was packed !!
Equipment: CA-14 [cardioids] > CA- 9200 preamp  > Sony PCM-M10
Settings: CA-9200 preamp at +35db [High Pass Filter or (Bass Roll Off) turned OFF], 
Sony PCM-M10 manual record level at 5
Recording Mode: LPCM [wav] 96.00kHz/24bit

Transfer: Sony PCM-M10 [ SanDisk Ultra [MicroSDHC] 8gb (class10)] > my Laptob HD [by way of USB] > 96kHz/24bit.WAV  

Mastering: Adobe Audition Vers.3.0 was used for +/- db gains to Lower the crowd noise w/o touching music, fade ins & outs All mastering and was done in 96.00kHz/24bit. No Normalization!! This is the Raw & Natural recording of this great show. 

Converting Sample Rate: Adobe Audition 3.0 was also used to to convert 96.00kHz/24bit.WAV to sample rate to 44.10kHz/16bit with High Qulaity at 100%, Pre Post Filter checked, Dither enabled, Dither Depth at 1, P.D.F set to Triangular and No Noise Shaping. 

CD Wave Editor To Split Tracks & converted to Flac16 [Level 6]
TLH to fix SBE

Set List
Electric Set 2
01. Jam
02. Tuning & Banter
03. Even Crazier Today
04. Portland Maine
05. Ain't No Freakin' Way
06. Wild Old Billy Goat
07. Murder On The Hill
08. Follow The Moon
09. Syretta Blue
10. Syracuse to Buffalo
11. Night Go Still
12. The Rumor
13. Sorry Dick
14. Stir It Up ^
15. Danger Man ^
16. Bertha ^
17. Up On Crripple Creek ^
18. Encore
19. Don't Let Go
20. Tutti Fruitti

Show Notes
^ -  Wailers cover
^ - David Bromberg cover
^ - Grateful Dead Cover
^ - The Band cover
FANTASTIC SHOW !!!

Band Members
Joe B. Henson - guitar, harmanica & vocals
Doug Wanamaker - keyboards & vocals
Kevin Tripodi - acoustic bass, bass, & vocals
Tim Bergan - drums & vocals

Source Notes
Tough recording in a packed bar

SUPPORT The ARTIST
Mo'Hen
https://www.facebook.com/hennsylvania/?ref=py_c
Go Buy There Music &/or See Them LIVE

THIS WAS AN AMAZING REUNION OF FANTASTIC MUSICIANS PLAYING THEIR OWN INCREDiBLE MUSIC & SOME COVERS THERE WAY. LESS CROWD IN THE BACKGROUND. AWESOME SET  

Added Notes by Happy Jack
Thanks to Doug & Mo'Hen for there kindness to record such a great music event
I was The Only Taper At The Show. Therefore this is the only Source In CIRCULATION !!!!
added flac fingerprints
added md5
added shnlen text
Photos included 

DO NOT SELL !!!!

ENJOY/SHARE WITH FAMILY & FRIENDS [That you trust & just loves the music]

Happy Jack
Please beware of us old school tapers who may have lost the tolerance for being disrespected! After so many years how many end up asking for a show!!!
Please Be Kind

MD5
622537879620bbc4110f9f3bce5219da *MoHen2016-12-30.Set2. Track01. Jam-fixed.flac
e9016072101d27ccd9c8af0bb3e6caee *MoHen2016-12-30.Set2. Track02. Tuning & Banter-fixed.flac
0788cbec18686e92c80cda3d40c6cda3 *MoHen2016-12-30.Set2. Track03. Even Crazier Today-fixed.flac
8259b68b641e2c9a803f9085cf520886 *MoHen2016-12-30.Set2. Track04. Portland Maine-fixed.flac
b59f6ae03669b29c5ae10bb6cc81afae *MoHen2016-12-30.Set2. Track05. No Freakin Way-fixed.flac
4507544a4aebeb665eea1fc80804e384 *MoHen2016-12-30.Set2. Track06. Wild Old Billy Goat-fixed.flac
0042a784794b6721a21bd206ad9cb23c *MoHen2016-12-30.Set2. Track07. Murder On The Hill-fixed.flac
3454f16ff2f795df74339e9258af11fb *MoHen2016-12-30.Set2. Track08. Follow The Moon-fixed.flac
7fa85949063518c26a3ba1a009528aa5 *MoHen2016-12-30.Set2. Track09. Syretta Blue-fixed.flac
49f1ad659ccc528ad8011792d9437ec9 *MoHen2016-12-30.Set2. Track10. Syracuse to Buffalo-fixed.flac
21f3acf33caa7f237ca048d5dcc7078e *MoHen2016-12-30.Set2. Track11. Night Go Still-fixed.flac
4d4762165dc8e592cc23df15bdfe4008 *MoHen2016-12-30.Set2. Track12. The Rumor-fixed.flac
484fc399847f175a0d8106bbd9cb6152 *MoHen2016-12-30.Set2. Track13. Sorry Dick-fixed.flac
3af3d22131c690e1f7559dba993c12a2 *MoHen2016-12-30.Set2. Track14. Stir It Up -fixed.flac
01ecbc2cc7b0935445ff8d23367d1b25 *MoHen2016-12-30.Set2. Track15. Danger Man-fixed.flac
4a94c4c120ece2843cf2dc8e0597218d *MoHen2016-12-30.Set2. Track16. Bertha -fixed.flac
5378323179fabb3d58518038fd6a51ac *MoHen2016-12-30.Set2. Track17. Up On Crripple Creek -fixed.flac
d8e1fba4e06c48e7f4bec7827c4b7c87 *MoHen2016-12-30.Set2. Track18. Encore-fixed.flac
09a38acc890b1316e04d421deda3cf8f *MoHen2016-12-30.Set2. Track19. Don't Let Go-fixed.flac
9055b8a57d1a40ee8ca1f9037241c95e *MoHen2016-12-30.Set2. Track20. Tutti Fruitti-fixed.flac

    length     expanded size    cdr  WAVE problems  fmt   ratio  filename
     1:14.23       13107740 B   ---   --   ---xx   flac  0.5422  MoHen2016-12-30.Set2. Track01. Jam-fixed.flac
     3:51.74       40922492 B   ---   --   ---xx   flac  0.3959  MoHen2016-12-30.Set2. Track02. Tuning & Banter-fixed.flac
     5:27.71       57849836 B   ---   --   ---xx   flac  0.5649  MoHen2016-12-30.Set2. Track03. Even Crazier Today-fixed.flac
     4:27.11       47124716 B   ---   --   ---xx   flac  0.5679  MoHen2016-12-30.Set2. Track04. Portland Maine-fixed.flac
     5:55.68       62781980 B   ---   --   ---xx   flac  0.5972  MoHen2016-12-30.Set2. Track05. No Freakin Way-fixed.flac
     9:03.61       95928716 B   ---   --   ---xx   flac  0.6148  MoHen2016-12-30.Set2. Track06. Wild Old Billy Goat-fixed.flac
     6:03.60       64174364 B   ---   --   ---xx   flac  0.5693  MoHen2016-12-30.Set2. Track07. Murder On The Hill-fixed.flac
     6:24.46       67845836 B   ---   --   ---xx   flac  0.5978  MoHen2016-12-30.Set2. Track08. Follow The Moon-fixed.flac
     8:19.40       88117724 B   ---   --   ---xx   flac  0.6090  MoHen2016-12-30.Set2. Track09. Syretta Blue-fixed.flac
     8:20.59       88338812 B   ---   --   ---xx   flac  0.5211  MoHen2016-12-30.Set2. Track10. Syracuse to Buffalo-fixed.flac
     5:10.71       54851036 B   ---   --   ---xx   flac  0.6221  MoHen2016-12-30.Set2. Track11. Night Go Still-fixed.flac
    10:16.53      108787100 B   ---   --   ---xx   flac  0.5430  MoHen2016-12-30.Set2. Track12. The Rumor-fixed.flac
     6:14.58       66110060 B   ---   --   ---xx   flac  0.5556  MoHen2016-12-30.Set2. Track13. Sorry Dick-fixed.flac
     7:30.73       79551740 B   ---   --   ---xx   flac  0.5765  MoHen2016-12-30.Set2. Track14. Stir It Up -fixed.flac
     6:47.42       71893628 B   ---   --   ---xx   flac  0.5800  MoHen2016-12-30.Set2. Track15. Danger Man-fixed.flac
     8:14.04       87151052 B   ---   --   ---xx   flac  0.6185  MoHen2016-12-30.Set2. Track16. Bertha -fixed.flac
     8:09.25       86318444 B   ---   --   ---xx   flac  0.6019  MoHen2016-12-30.Set2. Track17. Up On Crripple Creek -fixed.flac
     4:16.14       45191372 B   ---   --   ---xx   flac  0.3742  MoHen2016-12-30.Set2. Track18. Encore-fixed.flac
     8:08.12       86111468 B   ---   --   ---xx   flac  0.5911  MoHen2016-12-30.Set2. Track19. Don't Let Go-fixed.flac
     4:58.57       52701308 B   ---   --   ---xx   flac  0.6245  MoHen2016-12-30.Set2. Track20. Tutti Fruitti-fixed.flac
   128:57.22     1364859424 B                            0.5715  (20 files)





More information about the bittorrent mailing list