[bittorrent] MoHen 2016-12-30Set1.Green Gate Inn. NY.ca14 cards.happyjack16 [1st Time Ever In Circulation]

Automated Mailer noreply-bt.e at etree.org
Sat Jan 14 15:18:03 UTC 2017


Band:           Other
Torrent Name:   MoHen 2016-12-30Set1.Green Gate Inn. NY.ca14 cards.happyjack16  [1st Time Ever In Circulation]
Uploaded by:    dedhed69
DB Link:        
Details:        http://bt.etree.org/details.php?id=590792

Contact the seeder at http://db.etree.org/dedhed69

If the link to this show does not work, it was probably removed for
being non-trade-friendly.

Description / text file:
-------------------------

NEW TO CIRCULATION

MO'HEN
20th Anniversary Show
Green Gate Inn Restaurant
2 W Genesee St, Camillus, NY
December 30, 2016
Friday Show [started just before 9 pm - 2 sets] 
ACOUSTIC SET 1

A Gratefully Little Deadicated Feat Recording [2016, show # lost count. LOLS]
***16 Bit Version*** 1st TIME IN CIRCULATION 

Recorded, Mastering & Editing by Happy Jack [aka:dedhed69]
Photos, Video & Setlist gathered by Happy Jack 

Audience Recording
Location: stage right. which is my left right up to front where they cleared space for me. THANKS !!!
Mic were about 6.5' high directed at there speakers as best as I can tring to stay away from people. Place was packed !!
Equipment: CA-14 [cardioids] > CA- 9200 preamp  > Sony PCM-M10
Settings: CA-9200 preamp at +35db [High Pass Filter or (Bass Roll Off) turned OFF], 
Sony PCM-M10 manual record level at 5
Recording Mode: LPCM [wav] 96.00kHz/24bit

Transfer: Sony PCM-M10 [ SanDisk Ultra [MicroSDHC] 8gb (class10)] > my Laptob HD [by way of USB] > 96kHz/24bit.WAV  

Mastering: Adobe Audition Vers.3.0 was used for +/- db gains to Lower the crowd noise w/o touching music, fade ins & outs All mastering and was done in 96.00kHz/24bit. No Normalization!! This is the Raw & Natural recording of this great show. 

Converting Sample Rate: Adobe Audition 3.0 was also used to to convert 96.00kHz/24bit.WAV to sample rate to 44.10kHz/16bit with High Qulaity at 100%, Pre Post Filter checked, Dither enabled, Dither Depth at 1, P.D.F set to Triangular and No Noise Shaping. 

CD Wave Editor To Split Tracks & converted to Flac16 [Level 6]
TLH to fix SBE


Set List
Acoustic Set 1
01. A Lesser Fate ^
02. Banter > Change Dougs Mic
03. Sweetie Pie
04. Election Day at the Hillbrook Republican Club
05. Banter > Happy Birthday Wishes
06. The Price Is Right
07. Night Go Still
08. So Easily Exposed
09. Hercules The War Pony
10. Dead As The Moon
11. Pennsylvania Train
12. Bury My Heart 

Show Notes
Fantastic Acoustic Show

Band Members
Joe B. Henson - guitar, harmanica & vocals
Doug Wanamaker - keyboards & vocals
Kevin Tripodi - acoustic bass, bass, & vocals
Tim Bergan - drums & vocals

Source Notes
Tough recording in a packed bar
^ - fades in midway of song

SUPPORT The ARTIST
Mo'Hen
https://www.facebook.com/hennsylvania/?ref=py_c
Go Buy There Music &/or See Them LIVE

THIS WAS AN AMAZING REUNION OF FANTASTIC MUSICIANS PLAYING THEIR OWN INCREDABLE MUSIC. DO NOT LET THE CROWD IN THE BACKGROUND DISCOURAGE YOU FROM THE MUSIC

Added Notes by Happy Jack
Thanks to Doug & Mo'Hen for there kindness to record such a great music event
I was The Only Taper At The Show. Therefore this is the only Source In CIRCULATION !!!!
added flac fingerprints
added md5
added shnlen text
Photos included 

DO NOT SELL !!!!

ENJOY/SHARE WITH FAMILY & FRIENDS [That you trust & just loves the music]

Happy Jack
Please beware of us old school tapers who may have lost the tolerance for being disrespected! After so many years how many end up asking for a show!!!
Please Be Kind

MD5
21d5b9490ef00c16d0c6209899a3c14a *MoHen2016-12-30 Set1. Track01. A Lesser Fate -fixed.flac
89cf6014643691493145fafe610126a6 *MoHen2016-12-30 Set1. Track02. Banter  Change Dougs Mic-fixed.flac
68633d84d4a359b0b0de3a65bd80b5e6 *MoHen2016-12-30 Set1. Track03. Sweetie Pie-fixed.flac
7d69f426cb7c0b5b13eb42d8f95474f5 *MoHen2016-12-30 Set1. Track04. Election Day at the Hillbrook Republican Club-fixed.flac
4c0eb5dd4964bf5dfdcb91089b227177 *MoHen2016-12-30 Set1. Track05. Banter Happy Birthday Wishes-fixed.flac
62a3cd050acd69c36f69ba899a0f1448 *MoHen2016-12-30 Set1. Track06. The Price Is Right-fixed.flac
e445ce13cc3f8d94a08c6385e8d942e0 *MoHen2016-12-30 Set1. Track07. Night Go Still-fixed.flac
52eecb7acad1bc270d536371351b6161 *MoHen2016-12-30 Set1. Track08. So Easily Exposed -fixed.flac
d01400aa39145ed4f84707d44fc1fc37 *MoHen2016-12-30 Set1. Track09. Hercules The War Pony-fixed.flac
173de0c156328fd5390b3e726d5e421c *MoHen2016-12-30 Set1. Track10. Dead As The Moon-fixed.flac
4a69e0f68a04c2980cb37941894266dd *MoHen2016-12-30 Set1. Track11. Pennsylvania Train-fixed.flac
43c41205b6ad276906ca9e51a707d39c *MoHen2016-12-30 Set1. Track12. Bury My Heart -fixed.flac

    length     expanded size    cdr  WAVE problems  fmt   ratio  filename
     1:39.16       17501276 B   ---   --   ---xx   flac  0.6342  MoHen2016-12-30 Set1. Track01. A Lesser Fate -fixed.flac
     2:33.32       27064508 B   ---   --   ---xx   flac  0.4686  MoHen2016-12-30 Set1. Track02. Banter  Change Dougs Mic-fixed.flac
     5:47.19       61255532 B   ---   --   ---xx   flac  0.6002  MoHen2016-12-30 Set1. Track03. Sweetie Pie-fixed.flac
     3:29.13       36898220 B   ---   --   ---xx   flac  0.6248  MoHen2016-12-30 Set1. Track04. Election Day at the Hillbrook Republican Club-fixed.flac
     4:20.27       45927548 B   ---   --   ---xx   flac  0.4701  MoHen2016-12-30 Set1. Track05. Banter Happy Birthday Wishes-fixed.flac
     7:02.31       74513756 B   ---   --   ---xx   flac  0.5913  MoHen2016-12-30 Set1. Track06. The Price Is Right-fixed.flac
     5:59.52       63449948 B   ---   --   ---xx   flac  0.6212  MoHen2016-12-30 Set1. Track07. Night Go Still-fixed.flac
     7:48.42       82654028 B   ---   --   ---xx   flac  0.5852  MoHen2016-12-30 Set1. Track08. So Easily Exposed -fixed.flac
     5:52.14       62125772 B   ---   --   ---xx   flac  0.6233  MoHen2016-12-30 Set1. Track09. Hercules The War Pony-fixed.flac
     7:42.16       81534476 B   ---   --   ---xx   flac  0.5504  MoHen2016-12-30 Set1. Track10. Dead As The Moon-fixed.flac
     4:02.56       42820556 B   ---   --   ---xx   flac  0.6290  MoHen2016-12-30 Set1. Track11. Pennsylvania Train-fixed.flac
     5:05.22       53853788 B   ---   --   ---xx   flac  0.6441  MoHen2016-12-30 Set1. Track12. Bury My Heart -fixed.flac
    61:22.40      649599408 B                            0.5885  (12 files)





More information about the bittorrent mailing list