[bittorrent] Railroad Earth Variety Playhouse Atlanta, Georgia 1/13/2017 (Schoeps CCM4V'S FOB)

Automated Mailer noreply-bt.e at etree.org
Sat Jan 14 15:05:18 UTC 2017


Band:           Railroad Earth
Torrent Name:   Railroad Earth Variety Playhouse Atlanta, Georgia 1/13/2017 (Schoeps CCM4V'S FOB)
Uploaded by:    zmanatl
DB Link:        
Details:        http://bt.etree.org/details.php?id=590791

Contact the seeder at http://db.etree.org/zmanatl

If the link to this show does not work, it was probably removed for
being non-trade-friendly.

Description / text file:
-------------------------
Railroad Earth
Variety Playhouse
Atlanta, Georgia
1/13/2017

Source: Schoeps CCM4V's>Lunatec V2>Benchmark AD2K>
Sound Devices 722 (24/44)
FOB/DFC/KFC/ZFC/AARP Center Section, 4th Row, Between Seats 7 & 8, 7 1/2'
DSP: Sound Devices 722>Sound Forge 10.0>CD Wave>flac(16)
ID3 Tagged In Foobar 2000
Recorded By: Z-Man
Seeded By: Z-Man

Disc I 1st Set

01 Elko >
02 Magic Foot >
03 Luxury Liner 
04 Drag Him Down
05 The Cuckoo
06 Monkey 
07 Right In Tune >
08 1759 >
09 Fisherman Blues 

Disc II 2nd Set

01 Hard Livin' 
02 Mission Man 
03 Old Man And The Land
04 Seven Story Mountain 
05 Any Road
06 Lovin' You
07 Dance Around Molly >
08 Dandelion Wine

Disc III 2nd Set Con't

01 The Forecast >
02 Stillwater Getaway >
03 Face With A Hole 
04 Peace On Earth
Encore:
05 Thanks
06 Mighty River

rre2017-01-13d01t01.flac:dbdc544bef4dacc5abb3208918c841bb
rre2017-01-13d01t02.flac:56ef393eb0909aa001833662ed122b31
rre2017-01-13d01t03.flac:312cfe66c116f0712502eee6f91aecee
rre2017-01-13d01t04.flac:9d5c11310b5d63ac0951514b059a4ff8
rre2017-01-13d01t05.flac:3e548d08064ecd86158d2af2af4773d5
rre2017-01-13d01t06.flac:b9adff8a026604018f30abfab5ada728
rre2017-01-13d01t07.flac:41c33080ea9426ae8365a69ebe7b6efd
rre2017-01-13d01t08.flac:560f04612c041371d206fb4034dae6b9
rre2017-01-13d01t09.flac:3618069d07f7e2ea538e9d95ebb38aab
rre2017-01-13d02t01.flac:6b7b624dcca8de354f93be9da4cdb6e7
rre2017-01-13d02t02.flac:dd8e2a82556208eb5aa648278e10c713
rre2017-01-13d02t03.flac:d525c7cb633be61693fade489a3653f2
rre2017-01-13d02t04.flac:75d8b61f9271b37854ced0fbbfcccedf
rre2017-01-13d02t05.flac:cbe21cb5163e299164d781d38d98c641
rre2017-01-13d02t06.flac:ac1b036e4ac310fa741f728b2bf75d64
rre2017-01-13d02t07.flac:abab8b5f7afa606e11941c86aeef299b
rre2017-01-13d02t08.flac:9a152a8f09a616db89a7fba79b376fef
rre2017-01-13d03t01.flac:8961333d5eb58165381a32e8aebb49c7
rre2017-01-13d03t02.flac:44a4f6ffaf1587492966b05fec2ff76a
rre2017-01-13d03t03.flac:46e0e7e98eaa98e1494aca316716492e
rre2017-01-13d03t04.flac:7ecb9f790dab0a70a8e2be16547b204a
rre2017-01-13d03t05.flac:b2444e977dcd5fc85bcbc84d9c60e136
rre2017-01-13d03t06.flac:61b6b32ec27c9ba8a146630b924a3f70

  length     expanded size    cdr  WAVE problems  fmt   ratio  filename
     8:08.29       86151452 B   ---   --   ---xx   flac  0.5164  rre2017-01-13d01t01.flac
     3:09.72       33508988 B   ---   --   ---xx   flac  0.5120  rre2017-01-13d01t02.flac
     7:44.30       81920204 B   ---   --   ---xx   flac  0.5436  rre2017-01-13d01t03.flac
     4:37.60       49003964 B   ---   --   ---xx   flac  0.5436  rre2017-01-13d01t04.flac
     8:53.48       94134140 B   ---   --   ---xx   flac  0.5052  rre2017-01-13d01t05.flac
     4:34.12       48361868 B   ---   --   ---xx   flac  0.5230  rre2017-01-13d01t06.flac
     4:59.46       52851836 B   ---   --   ---xx   flac  0.5469  rre2017-01-13d01t07.flac
    12:37.31      133607756 B   ---   --   ---xx   flac  0.5679  rre2017-01-13d01t08.flac
     8:13.32       87040508 B   ---   --   ---xx   flac  0.5243  rre2017-01-13d01t09.flac
     8:07.29       85975052 B   ---   --   ---xx   flac  0.5470  rre2017-01-13d02t01.flac
     9:23.41       99409676 B   ---   --   ---xx   flac  0.5362  rre2017-01-13d02t02.flac
     6:45.06       71456156 B   ---   --   ---xx   flac  0.5015  rre2017-01-13d02t03.flac
    13:31.55      143189804 B   ---   --   ---xx   flac  0.4992  rre2017-01-13d02t04.flac
     4:36.25       48745244 B   ---   --   ---xx   flac  0.5237  rre2017-01-13d02t05.flac
     4:22.36       46301516 B   ---   --   ---xx   flac  0.4466  rre2017-01-13d02t06.flac
     2:56.03       31053500 B   ---   --   ---xx   flac  0.5563  rre2017-01-13d02t07.flac
     4:44.40       50191724 B   ---   --   ---xx   flac  0.5564  rre2017-01-13d02t08.flac
    11:34.19      122466332 B   ---   --   ---xx   flac  0.5190  rre2017-01-13d03t01.flac
     8:22.24       88609292 B   ---   --   ---xx   flac  0.5420  rre2017-01-13d03t02.flac
     9:12.33       97450460 B   ---   --   ---xx   flac  0.5462  rre2017-01-13d03t03.flac
     5:22.54       56927852 B   ---   --   ---xx   flac  0.5409  rre2017-01-13d03t04.flac
     0:26.70        4751084 B   ---   --   ---xx   flac  0.3478  rre2017-01-13d03t05.flac
     7:53.24       83493692 B   ---   --   ---xx   flac  0.5304  rre2017-01-13d03t06.flac
   160:17.69     1696602100 B                            0.5285  (23 files)





More information about the bittorrent mailing list