[bittorrent] MoHen 2016-12-30Set2.Green Gate Inn. NY.ca14 cards.happyjack24 [Never Been Circulated]

Automated Mailer noreply-bt.e at etree.org
Sat Jan 14 02:42:37 UTC 2017


Band:           Other
Torrent Name:   MoHen 2016-12-30Set2.Green Gate Inn. NY.ca14 cards.happyjack24  [Never Been Circulated]
Uploaded by:    dedhed69
DB Link:        
Details:        http://bt.etree.org/details.php?id=590786

Contact the seeder at http://db.etree.org/dedhed69

If the link to this show does not work, it was probably removed for
being non-trade-friendly.

Description / text file:
-------------------------

NEW TO CIRCULATION

MO'HEN
20th Anniversary Show
Green Gate Inn Restaurant
2 W Genesee St, Camillus, NY
December 30, 2016
Friday Show [started just before 11 pm - 2 sets] 
ELECTRIC SET2

A Gratefully Little Deadicated Feat Recording [2016, show # lost count. LOLS]
***24 Bit Version*** 1st TIME IN CIRCULATION 

Recorded, Mastering & Editing by Happy Jack [aka:dedhed69]
Photos, Video & Setlist gathered by Happy Jack & Doug

 Audience Recording
Location: stage right. which is my left right up to front where they cleared space for me. THANKS !!!
Mic were about 6.5' high directed at there speakers as best as I can tring to stay away from people. Place was packed !!
Equipment: CA-14 [cardioids] > CA- 9200 preamp  > Sony PCM-M10
Settings: CA-9200 preamp at +35db [High Pass Filter or (Bass Roll Off) turned OFF], 
Sony PCM-M10 manual record level at 5
Recording Mode: LPCM [wav] 96.00kHz/24bit

Transfer: Sony PCM-M10 [ SanDisk Ultra [MicroSDHC] 8gb (class10)] > my Laptob HD [by way of USB] > 96kHz/24bit.WAV  

Mastering: Adobe Audition Vers.3.0 was used for +/- db gains to Lower the crowd noise w/o touching music, fade ins & outs All mastering and was done in 96.00kHz/24bit. No Normalization!! This is the Raw & Natural recording of this great show. 

CD Wave Editor Vers.1.98 was used to split into tracks and Convert tro Flac24 [Level 6]

Set List
Electric Set 2
01. Jam
02. Tuning & Banter
03. Even Crazier Today
04. Portland Maine
05. Ain't No Freakin' Way
06. Wild Old Billy Goat
07. Murder On The Hill
08. Follow The Moon
09. Syretta Blue
10. Syracuse to Buffalo
11. Night Go Still
12. The Rumor
13. Sorry Dick
14. Stir It Up ^
15. Danger Man ^
16. Bertha ^
17. Up On Crripple Creek ^
18. Encore
19. Don't Let Go
20. Tutti Fruitti

Show Notes
^ -  Wailers cover
^ - David Bromberg cover
^ - Grateful Dead Cover
^ - The Band cover
FANTASTIC SHOW !!!

Band Members
Joe B. Henson - guitar, harmanica & vocals
Doug Wanamaker - keyboards & vocals
Kevin Tripodi - acoustic bass, bass, & vocals
Tim Bergan - drums & vocals

Source Notes
Tough recording in a packed bar

SUPPORT The ARTIST
Mo'Hen
https://www.facebook.com/hennsylvania/?ref=py_c
Go Buy There Music &/or See Them LIVE

THIS WAS AN AMAZING REUNION OF FANTASTIC MUSICIANS PLAYING THEIR OWN INCREDiBLE MUSIC & SOME COVERS THERE WAY. LESS CROWD IN THE BACKGROUND. AWESOME SET  

Added Notes by Happy Jack
Thanks to Doug & Mo'Hen for there kindness to record such a great music event
I was The Only Taper At The Show. Therefore this is the only Source In CIRCULATION !!!!
added flac fingerprints
added md5
added shnlen text
Photos included 

DO NOT SELL !!!!

ENJOY/SHARE WITH FAMILY & FRIENDS [That you trust & just loves the music]

Happy Jack
Please beware of us old school tapers who may have lost the tolerance for being disrespected! After so many years how many end up asking for a show!!!
Please Be Kind

MD5
f0227187680523e9dc04431b68e72e98 *MoHen2016-12-30.Set2. Track01. Jam.flac
d05353cd3d1a468a2ae6ba2f3917eb09 *MoHen2016-12-30.Set2. Track02. Tuning & Banter.flac
2d6a8dfe5b5af0c4047dc235dde41686 *MoHen2016-12-30.Set2. Track03. Uknown.flac
d85ad62837802047e861bece17853197 *MoHen2016-12-30.Set2. Track04. Uknown.flac
55d0e702103d6045ef5169680a962fb5 *MoHen2016-12-30.Set2. Track05. No Freakin Way.flac
576ccf8a07ff20bacd33f2070a3880ab *MoHen2016-12-30.Set2. Track06. Uknown.flac
6f3d290749769aefe7b1445f84839c26 *MoHen2016-12-30.Set2. Track07. Uknown.flac
b72ade61006f430c12e633a5df067f96 *MoHen2016-12-30.Set2. Track08. Follow The Moon.flac
f106eb119708c9a77cd599af2b96e585 *MoHen2016-12-30.Set2. Track09. Uknown.flac
9d492b8c18d3c3bb3021384116910919 *MoHen2016-12-30.Set2. Track10. Uknown.flac
fb10985089bd3b8a4f5a97746179fbb0 *MoHen2016-12-30.Set2. Track11. Night Go Still.flac
e56fcb97c1fd53f0b5331331a32df046 *MoHen2016-12-30.Set2. Track12. Uknown.flac
b47dcbb35fd3a5c0e76d1ea112656791 *MoHen2016-12-30.Set2. Track13. Sorry Dick.flac
959f6338cee76f5b2e6394e44b02267d *MoHen2016-12-30.Set2. Track14. Stir It Up .flac
e9bdbaf1f6ee68bfe4443646d2425536 *MoHen2016-12-30.Set2. Track15. Uknown .flac
f35a2501abdbef5d5265fcd86320cd0e *MoHen2016-12-30.Set2. Track16. Bertha .flac
c5f4704982703d9d019177a69e8e40c0 *MoHen2016-12-30.Set2. Track17. Up On Crripple Creek .flac
dcc4596c5db6a40a4c3c8acfa1e0be8d *MoHen2016-12-30.Set2. Track18. Encore.flac
828dee6b923ae6e4343a49218a1b08f9 *MoHen2016-12-30.Set2. Track19. Don't Let Go.flac
bf8592abbc7023e3963ba59712b9e101 *MoHen2016-12-30.Set2. Track20. Unknown.flac

    length     expanded size    cdr  WAVE problems  fmt   ratio  filename
     1:14.307      42800684 B   cxx   --   ---xx   flac  0.5957  MoHen2016-12-30.Set2. Track01. Jam.flac
     3:51.987     133624364 B   cxx   --   ---xx   flac  0.5226  MoHen2016-12-30.Set2. Track02. Tuning & Banter.flac
     5:27.947     188897324 B   cxx   --   ---xx   flac  0.6082  MoHen2016-12-30.Set2. Track03. Uknown.flac
     4:27.147     153876524 B   cxx   --   ---xx   flac  0.6101  MoHen2016-12-30.Set2. Track04. Uknown.flac
     5:55.907     205002284 B   cxx   --   ---xx   flac  0.6262  MoHen2016-12-30.Set2. Track05. No Freakin Way.flac
     9:03.813     313236524 B   cxx   --   ---xx   flac  0.6330  MoHen2016-12-30.Set2. Track06. Uknown.flac
     6:03.800     209548844 B   cxx   --   ---xx   flac  0.6110  MoHen2016-12-30.Set2. Track07. Uknown.flac
     6:24.613     221537324 B   cxx   --   ---xx   flac  0.6257  MoHen2016-12-30.Set2. Track08. Follow The Moon.flac
     8:19.533     287731244 B   cxx   --   ---xx   flac  0.6314  MoHen2016-12-30.Set2. Track09. Uknown.flac
     8:20.787     288453164 B   cxx   --   ---xx   flac  0.5895  MoHen2016-12-30.Set2. Track10. Uknown.flac
     5:10.947     179105324 B   cxx   --   ---xx   flac  0.6373  MoHen2016-12-30.Set2. Track11. Night Go Still.flac
    10:16.707     355223084 B   cxx   --   ---xx   flac  0.5983  MoHen2016-12-30.Set2. Track12. Uknown.flac
     6:14.773     215869484 B   cxx   --   ---xx   flac  0.6072  MoHen2016-12-30.Set2. Track13. Sorry Dick.flac
     7:30.973     259760684 B   cxx   --   ---xx   flac  0.6172  MoHen2016-12-30.Set2. Track14. Stir It Up .flac
     6:47.560     234754604 B   cxx   --   ---xx   flac  0.6166  MoHen2016-12-30.Set2. Track15. Uknown .flac
     8:14.053     284574764 B   cxx   --   ---xx   flac  0.6361  MoHen2016-12-30.Set2. Track16. Bertha .flac
     8:09.333     281856044 B   cxx   --   ---xx   flac  0.6285  MoHen2016-12-30.Set2. Track17. Up On Crripple Creek .flac
     4:16.187     147563564 B   cxx   --   ---xx   flac  0.5144  MoHen2016-12-30.Set2. Track18. Encore.flac
     8:08.160     281180204 B   cxx   --   ---xx   flac  0.6242  MoHen2016-12-30.Set2. Track19. Don't Let Go.flac
     4:58.747     114718764 B   cxx   --   ---xx   flac  0.4700  MoHen2016-12-30.Set2. Track20. Unknown.flac
   128:57.280    4399314800 B                            0.6081  (20 files)




More information about the bittorrent mailing list