[bittorrent] MoHen 2016-12-30Set1.Green Gate Inn. NY.ca14 cards.happyjack24 [Never Circulated]

Automated Mailer noreply-bt.e at etree.org
Sat Jan 14 02:38:13 UTC 2017


Band:           Other
Torrent Name:   MoHen 2016-12-30Set1.Green Gate Inn. NY.ca14 cards.happyjack24  [Never Circulated]
Uploaded by:    dedhed69
DB Link:        
Details:        http://bt.etree.org/details.php?id=590785

Contact the seeder at http://db.etree.org/dedhed69

If the link to this show does not work, it was probably removed for
being non-trade-friendly.

Description / text file:
-------------------------

NEW TO CIRCULATION

MO'HEN
20th Anniversary Show
Green Gate Inn Restaurant
2 W Genesee St, Camillus, NY
December 30, 2016
Friday Show [started just before 9 pm - 2 sets] 
ACOUSTIC SET 1

A Gratefully Little Deadicated Feat Recording [2016, show # lost count. LOLS]
***24 Bit Version*** 1st TIME IN CIRCULATION 

Recorded, Mastering & Editing by Happy Jack [aka:dedhed69]
Photos, Video & Setlist gathered by Happy Jack 

Audience Recording
Location: stage right. which is my left right up to front where they cleared space for me. THANKS !!!
Mic were about 6.5' high directed at there speakers as best as I can tring to stay away from people. Place was packed !!
Equipment: CA-14 [cardioids] > CA- 9200 preamp  > Sony PCM-M10
Settings: CA-9200 preamp at +35db [High Pass Filter or (Bass Roll Off) turned OFF], 
Sony PCM-M10 manual record level at 5
Recording Mode: LPCM [wav] 96.00kHz/24bit

Transfer: Sony PCM-M10 [ SanDisk Ultra [MicroSDHC] 8gb (class10)] > my Laptob HD [by way of USB] > 96kHz/24bit.WAV  

Mastering: Adobe Audition Vers.3.0 was used for +/- db gains to Lower the crowd noise w/o touching music, fade ins & outs All mastering and was done in 96.00kHz/24bit. No Normalization!! This is the Raw & Natural recording of this great show. 

CD Wave Editor Vers.1.98 was used to split into tracks and Convert tro Flac24 [Level 6]

Set List
Acoustic Set 1
01. A Lesser Fate ^
02. Banter > Change Dougs Mic
03. Sweetie Pie
04. Election Day at the Hillbrook Republican Club
05. Banter > Happy Birthday Wishes
06. The Price Is Right
07. Night Go Still
08. So Easily Exposed
09. Hercules The War Pony
10. Dead As The Moon
11. Pennsylvania Train
12. Bury My Heart ?

Show Notes
Fantastic Acoustic Show

Band Members
Joe B. Henson - guitar, harmanica & vocals
Doug Wanamaker - keyboards & vocals
Kevin Tripodi - acoustic bass, bass, & vocals
Tim Bergan - drums & vocals

Source Notes
Tough recording in a packed bar
^ - fades in midway of song

SUPPORT The ARTIST
Mo'Hen
https://www.facebook.com/hennsylvania/?ref=py_c
Go Buy There Music &/or See Them LIVE

THIS WAS AN AMAZING REUNION OF FANTASTIC MUSICIANS PLAYING THEIR OWN INCREDABLE MUSIC. DO NOT LET THE CROWD IN THE BACKGROUND DISCOURAGE YOU FROM THE MUSIC

Added Notes by Happy Jack
Thanks to Doug & Mo'Hen for there kindness to record such a great music event
I was The Only Taper At The Show. Therefore this is the only Source In CIRCULATION !!!!
added flac fingerprints
added md5
added shnlen text
Photos included 

DO NOT SELL !!!!

ENJOY/SHARE WITH FAMILY & FRIENDS [That you trust & just loves the music]

Happy Jack
Please beware of us old school tapers who may have lost the tolerance for being disrespected! After so many years how many end up asking for a show!!!
Please Be Kind

MD5
d74192f7f342dcb98b496ea4ad5d2602 *MoHen2016-12-30 Set1. Track01. A Lesser Fate .flac
54a911f81350370a19b463c313f4ed3c *MoHen2016-12-30 Set1. Track02. Banter  Change Dougs Mic.flac
361a83276b841aa9bdd4be77658a6a7f *MoHen2016-12-30 Set1. Track03. Sweetie Pie.flac
1d8f5417bc413e48d6bbaf41bdca5530 *MoHen2016-12-30 Set1. Track04. Election Day at the Hillbrook Republican Club.flac
f222ecb95160f92902740e8e9b935e8e *MoHen2016-12-30 Set1. Track05. Banter Happy Birthday Wishes.flac
e4d6fecc07df8a304c7f5acc520b5053 *MoHen2016-12-30 Set1. Track06. The Price Is Right.flac
02c9434ea9cf7d12518ff7d23085861b *MoHen2016-12-30 Set1. Track07. Night Go Still.flac
4cc990fb44c22df9d1f7f42f4d25c88f *MoHen2016-12-30 Set1. Track08. Uknown .flac
deed9f8fa8c393ae95707ab796b10e44 *MoHen2016-12-30 Set1. Track09. Hercules The War Pony.flac
db93cb0f2f1d457127355b6dddabc532 *MoHen2016-12-30 Set1. Track10. Dead As The Moon.flac
3c29dbeabdfcf6cb16aa2545ef0cde53 *MoHen2016-12-30 Set1. Track11. Pennsylvania Train.flac
ffc83d1cd8b83b85f3abc669eee44240 *MoHen2016-12-30 Set1. Track12. Bury My Heart .flac

    length     expanded size    cdr  WAVE problems  fmt   ratio  filename
     1:39.213      57146924 B   cxx   --   ---xx   flac  0.6424  MoHen2016-12-30 Set1. Track01. A Lesser Fate .flac
     2:33.427      88373804 B   cxx   --   ---xx   flac  0.5659  MoHen2016-12-30 Set1. Track02. Banter  Change Dougs Mic.flac
     5:47.253     200017964 B   cxx   --   ---xx   flac  0.6332  MoHen2016-12-30 Set1. Track03. Sweetie Pie.flac
     3:29.173     120483884 B   cxx   --   ---xx   flac  0.6457  MoHen2016-12-30 Set1. Track04. Election Day at the Hillbrook Republican Club.flac
     4:20.360     149967404 B   cxx   --   ---xx   flac  0.5611  MoHen2016-12-30 Set1. Track05. Banter Happy Birthday Wishes.flac
     7:02.413     243310124 B   cxx   --   ---xx   flac  0.6280  MoHen2016-12-30 Set1. Track06. The Price Is Right.flac
     5:59.693     207183404 B   cxx   --   ---xx   flac  0.6427  MoHen2016-12-30 Set1. Track07. Night Go Still.flac
     7:48.560     269890604 B   cxx   --   ---xx   flac  0.6238  MoHen2016-12-30 Set1. Track08. Uknown .flac
     5:52.187     202859564 B   cxx   --   ---xx   flac  0.6469  MoHen2016-12-30 Set1. Track09. Hercules The War Pony.flac
     7:42.213     266234924 B   cxx   --   ---xx   flac  0.6123  MoHen2016-12-30 Set1. Track10. Dead As The Moon.flac
     4:02.747     139822124 B   cxx   --   ---xx   flac  0.6470  MoHen2016-12-30 Set1. Track11. Pennsylvania Train.flac
     5:05.293     175848854 B   cxx   --   ---xx   flac  0.6557  MoHen2016-12-30 Set1. Track12. Bury My Heart .flac
    61:22.533    2121139578 B                            0.6269  (12 files)





More information about the bittorrent mailing list