[bittorrent] gd1980-10-31 Partial Show.RadioCity.NY.sbd2ndgenmsc.happyjack.Flac16 [New & different Source to Circulation]

Automated Mailer noreply-bt.e at etree.org
Sat Jan 14 02:13:03 UTC 2017


Band:           Grateful Dead
Torrent Name:   gd1980-10-31 Partial Show.RadioCity.NY.sbd2ndgenmsc.happyjack.Flac16  [New & different Source to Circulation]
Uploaded by:    dedhed69
DB Link:        
Details:        http://bt.etree.org/details.php?id=590784

Contact the seeder at http://db.etree.org/dedhed69

If the link to this show does not work, it was probably removed for
being non-trade-friendly.

Description / text file:
-------------------------

  
NEW DIFFERENT SOURCE TO CIRCULATION

GRATEFUL DEAD
Radio City Music Hall
1260 Avenue of the  (Sixth Avenue), 
Manhattan, New York City New York
October 31,1980

     A Gratefully Little Deadicated Feat Recording 
[Happy Jack's Masters Cassette Analog Collection #3]
 *** 16 Bit Version *** 1st TIME IN CIRCULATION 

Taping: Friend & Happy Jack
All Transfering, Mastering & Editing by Happy Jack [aka; dedhed69] 12/2016

Source: SBD Recording [This is A 2nd Generation]
Location:  We were on stage Right [Jerry's side] patched into the mixingboard with Left/Right  plugs. My friend had a hook up on Jerry's side. It was crowded that night. Pretty overwhelmed for a young person

Lineage: mixingboard [Line out Left/Right] > TC-d5 [Line In recording level 3.5. No Dolbly] > Master Cassettes [Sony UCX90]

For The Clones [NOTE: THIS CLONE WAS MADE DECK TO DECK BEFORE THE AIWA SYSTEM WHICH CAUSED THE SPEED & PITCH CORRECTION PROBLEM] USING [Sony UCX90 Tapes]

Then the clone tapes was [dubbed] - on a Aiwa CX-NA555
This Show used a Sony UCX90 with High (CrO2 Tape OFF] NO Dolby marked 
used a Sony UCX90 with High (CrO2 Tape OFF] NO Dolby marked 

Tape Transfer: Sharp RT100 Deck > Sony PCM-M10 > Scandisc Ultra MicroSD 8gb [class 10] on 12/27/2016
Settings: Sharp RT100 Deck: Dolby NR - OFF & CrO2 - OFF
Settings: Sony PCM-M10 manual record level at 6
Recording Mode: LPCM [wav] 96.00kHz/24bit

Recording Transfer: Sony PCM-M10 [ SanDisk Ultra [MicroSDHC] 8gb (class10)] > my Laptob HD by way of USB > 96.00kHz/24bit wav 

Mastering & Editing: 96.00kHz/24bit wav > AA3 was used for +/- db gains, removing some cable connection pops. Pitch correction & speed correction. No music was Lost, Altered and/or Touched. Still some tape warble

Converting Sample Rate: Adobe Audition 3.0 was also used to to convert 96.00kHz/24bit.WAV to sample rate to 44.10kHz/16bit with High Qulaity at 100%, Pre Post Filter checked, Dither enabled, Dither Depth at 1, P.D.F set to Triangular and No Noise Shaping. 

CD Wave Editor To Split Tracks & converted to Flac16 [Level 6]
TLH to fix SBE

Set 2  [Partial]
01. Brown Eyed Women ^ > 
02. Looks Like Rain
03. Deal > Outro

SET BREAK

Set 3 
01. Dont Ease Me In
02. Lost Sailor >
03. Saint Of Circumstance >
04. Franklins Tower > Drums ^
05. Fire On The Mountain ^ >
06. Not Fade Away >
07. Stella Blue >
08. Goin Down The Road Feeling Bad >
09. Good Lovin'

Show Notes
This was one of my favorite shows. Jerry's voice is clear & so is his guitar playing tight with Billy. 
The 3rd set is AWESOME. TOO MANY HIGHLIGHTS TO MENTION

Band Memberes
Jerry Garcia - guitar & vocals
Bob Weir - guitar & vocals
Bill Kreutzmann - drums
Phil Lesh - bass & vocals
Mickey Hart - percussion 
Brent Mydland - keyboards & vocals

Source Notes
^ - Fade in
^ - Drums are cut from tape flip [did not fade out in case want to use with patch]
^ - Fire Fades in with Space
The place was sold out & packed. Not my type of comfort zone for me as a young person then. Good thing my friend was big &knew where to go & had people around us.
I believe we had a bad cable and/or connection to the monitor somewhere now & then you here a click. I got rid of some major ones. Overall a nice recording very little audience & no echoing from the the Hall as I sampled all other recordings. Jerry's guitar is out front. This is not better than cousinits sbd. Just a different listen

SUPPORT THE ARTIST
http://www.dead.net/
Buy there Music. Go See Them LIVE !!

THIS IS ONE OF MY FAVORITE SHOWS . GREAT SET LIST, SOUND & AWESOME PLAYING FROM THE BAND THIS NIGHT !!!!!!

Happy Jack Final Notes
*** Thanks to my friend for teaching me & the great times taping from 77-90
# - I will go with this as being the 2nd generation of our original MASTER cassette due to I see  the extra step from tape to tape. BUT as far as I know this is the only monitor mix that exist of partial SET 2 & all of SET 3

  The rest has been stolen along with many others while I was in the Hospital for Spinal Bacteria Meningitas. The  good news there r about 75 tapes still here I would & Like them see the light & ears of others as my health is declinig. Plus it is good therapy for me to do this once again. I have not touched most of these tapes in 25 - 30 years. God Bless & Enjoy Jack


added md5
added ffp
added shn tool.len text
SBEs Fixed

DO NOT SELL !!!!

ENJOY/SHARE WITH FAMILY & FRIENDS [That you trust & just loves the music]

Happy Jack
Please beware of us old school tapers who may have lost the tolerance for being disrespected! After so many years how many end up asking for a show!!!
Please Be Kind

MD5
ce05e34cef5b727628131f0710fcdb56 *gd1980-10-31 Partial Show.sbd.Set2.Track01. Brown Eyed Women.flac
fd7f7a49944826603848a9755a3ce90b *gd1980-10-31 Partial Show.sbd.Set2.Track02. Looks Like Rain.flac
89519e767ff755aef61d5f78baea3838 *gd1980-10-31 Partial Show.sbd.Set2.Track03. Deal  Outro.flac
260aec8b78379e90de2075c4912f6a9a *gd1980-10-31 Partial Show.sbd.Set3.Track01. Dont Ease Me In.flac
651d5cf5b3b7573c554e0abe66e1eded *gd1980-10-31 Partial Show.sbd.Set3.Track02. Lost Sailor .flac
6806b400d1a4b1aaa59f7d9a195afa7c *gd1980-10-31 Partial Show.sbd.Set3.Track03. Saint Of Circumstance .flac
4cc3c4f96657fe3e42937740556dab7c *gd1980-10-31 Partial Show.sbd.Set3.Track04. Franklins Tower  Drums .flac
51c30a7b269b6861ff05c3f2fee3d337 *gd1980-10-31 Partial Show.sbd.Set3.Track05. Fire On The Mountain .flac
ce891f4f425ab773a669fa3ba00833ac *gd1980-10-31 Partial Show.sbd.Set3.Track06. Not Fade Away .flac
698cf6cbcf1b68a02dd0c10d2ca0ffd7 *gd1980-10-31 Partial Show.sbd.Set3.Track07. Stella Blue .flac
cb5cd84a17e03a21a1a9738389e17ab3 *gd1980-10-31 Partial Show.sbd.Set3.Track08. Goin Down The Road Feeling Bad .flac
adba99c14aaa5d787e2e8827fe94f543 *gd1980-10-31 Partial Show.sbd.Set3.Track09. Good Lovin.flac

    length     expanded size    cdr  WAVE problems  fmt   ratio  filename
     4:42.21       49794236 B   ---   --   ---xx   flac  0.5235  gd1980-10-31 Partial Show.sbd.Set2.Track01. Brown Eyed Women.flac
     6:57.58       73695260 B   ---   --   ---xx   flac  0.5187  gd1980-10-31 Partial Show.sbd.Set2.Track02. Looks Like Rain.flac
     6:34.41       69598076 B   ---   --   ---xx   flac  0.5400  gd1980-10-31 Partial Show.sbd.Set2.Track03. Deal  Outro.flac
     3:44.15       39548924 B   ---   --   ---xx   flac  0.5523  gd1980-10-31 Partial Show.sbd.Set3.Track01. Dont Ease Me In.flac
     6:11.01       65446796 B   ---   --   ---xx   flac  0.5456  gd1980-10-31 Partial Show.sbd.Set3.Track02. Lost Sailor .flac
     6:40.03       70567100 B   ---   --   ---xx   flac  0.5511  gd1980-10-31 Partial Show.sbd.Set3.Track03. Saint Of Circumstance .flac
    12:02.38      127450220 B   ---   --   ---xx   flac  0.5461  gd1980-10-31 Partial Show.sbd.Set3.Track04. Franklins Tower  Drums .flac
    10:28.27      110842748 B   ---   --   ---xx   flac  0.5660  gd1980-10-31 Partial Show.sbd.Set3.Track05. Fire On The Mountain .flac
     6:24.54       67864652 B   ---   --   ---xx   flac  0.5737  gd1980-10-31 Partial Show.sbd.Set3.Track06. Not Fade Away .flac
     9:50.03      104083100 B   ---   --   ---xx   flac  0.5634  gd1980-10-31 Partial Show.sbd.Set3.Track07. Stella Blue .flac
     6:01.21       63729836 B   ---   --   ---xx   flac  0.5679  gd1980-10-31 Partial Show.sbd.Set3.Track08. Goin Down The Road Feeling Bad .flac
     6:23.10       67585232 B   -b-   --   ---xx   flac  0.5699  gd1980-10-31 Partial Show.sbd.Set3.Track09. Good Lovin.flac
    85:59.67      910206180 B                            0.5526  (12 files)




More information about the bittorrent mailing list