[bittorrent] gd1982-04-17.137573.m160.streeter.miller.flac24

Automated Mailer noreply-bt.e at etree.org
Sat Jan 14 02:08:03 UTC 2017


Band:           Grateful Dead
Torrent Name:   gd1982-04-17.137573.m160.streeter.miller.flac24
Uploaded by:    greendude
DB Link:        
Details:        http://bt.etree.org/details.php?id=590783

Contact the seeder at http://db.etree.org/greendude

If the link to this show does not work, it was probably removed for
being non-trade-friendly.

Description / text file:
-------------------------
Grateful Dead - April 17, 1982
Hartford Civic Center - Hartford, CT

Recording Info:
(FOB) Beyer M160 > Cassette Master (Sony TC-D5M/TDK MA-C90)

Transfer Info:
Cassette Master (Nakamichi CR-7A) > Tascam DA-3000 (DSF 1-bit/5.8 MHz) >
KORG AudioGate 4 > Samplitude Pro X3 Suite > FLAC/24
(1 Disc FLAC)

All Transfers and Mastering By Charlie Miller
charliemiller87 at earthlink.net
January 13, 2017

Patch Info:
(FOB) Nakamichi 700 > Cassette Master (shnid=78747) supplies:
Man Smart, Woman Smarter (2:37 - end of track)

Notes:
-- Recorded By Frank Streeter

Set 1:
01 - New Minglewood Blues >
02 - Sugaree >
03 - El Paso
04 - Jack-A-Roe >
05 - Little Red Rooster
06 - Tennessee Jed
07 - It's All Over Now
08 - Bird Song >
09 - Man Smart, Woman Smarter

Set 2:
10 - Shakedown Street >
11 - Lost Sailor >
12 - Saint Of Circumstance >
13 - Spanish Jam >
14 - Drums >
15 - Space >
16 - Uncle John's Band >
17 - Not Fade Away >
18 - Wharf Rat >
19 - Around And Around >
20 - One More Saturday Night

Encore:
21 - It's All Over Now, Baby Blue


SHNTOOL OUTPUT:
    length     expanded size    cdr  WAVE problems  fmt   ratio  filename
     7:30.445     259456652 B   cxx   --   ---xx   flac  0.7072  01 New Minglewood Blues.flac
    12:07.444     419007590 B   cxx   --   ---xx   flac  0.7090  02 Sugaree.flac
     5:22.383     185692688 B   cxx   --   ---xx   flac  0.7018  03 El Paso.flac
     4:58.177     171749720 B   cxx   --   ---xx   flac  0.7136  04 Jack-A-Roe.flac
     9:19.639     322352186 B   cxx   --   ---xx   flac  0.7016  05 Little Red Rooster.flac
     8:54.103     307643354 B   cxx   --   ---xx   flac  0.7058  06 Tennessee Jed.flac
     8:21.542     288888032 B   cxx   --   ---xx   flac  0.7089  07 It's All Over Now.flac
     9:35.241     331338800 B   cxx   --   ---xx   flac  0.7214  08 Bird Song.flac
     6:09.262     212694710 B   cxx   --   ---xx   flac  0.6614  09 Man Smart, Woman Smarter.flac
    15:34.869     538484558 B   cxx   --   ---xx   flac  0.7020  10 Shakedown Street.flac
     7:20.263     253591466 B   cxx   --   ---xx   flac  0.6909  11 Lost Sailor.flac
     7:09.013     247111490 B   cxx   --   ---xx   flac  0.6933  12 Saint Of Circumstance.flac
     5:29.463     189770972 B   cxx   --   ---xx   flac  0.6833  13 Spanish Jam.flac
     7:29.493     258907904 B   cxx   --   ---xx   flac  0.6710  14 Drums.flac
     8:10.235     282375182 B   cxx   --   ---xx   flac  0.6728  15 Space.flac
     8:08.075     281130956 B   cxx   --   ---xx   flac  0.7056  16 Uncle John's Band.flac
     8:41.108     300158000 B   cxx   --   ---xx   flac  0.6973  17 Not Fade Away.flac
     9:44.921     336914474 B   cxx   --   ---xx   flac  0.6923  18 Wharf Rat.flac
     3:59.068     137703452 B   cxx   --   ---xx   flac  0.6996  19 Around And Around.flac
     4:47.200     165427316 B   cxx   --   ---xx   flac  0.7037  20 One More Saturday Night.flac
     7:06.109     245438840 B   cxx   --   ---xx   flac  0.6973  21 It's All Over Now, Baby Blue.flac
   165:58.051    5735838342 B                            0.6981  (21 files)




More information about the bittorrent mailing list