[bittorrent] gd1980-10-31 Partial Show.RadioCity.NY.sbd2ndgenmsc.happyjack.Flac24 [Different & New Source To Circulation]

Automated Mailer noreply-bt.e at etree.org
Sat Jan 14 02:07:46 UTC 2017


Band:           Grateful Dead
Torrent Name:   gd1980-10-31 Partial Show.RadioCity.NY.sbd2ndgenmsc.happyjack.Flac24  [Different & New  Source To Circulation]
Uploaded by:    dedhed69
DB Link:        
Details:        http://bt.etree.org/details.php?id=590782

Contact the seeder at http://db.etree.org/dedhed69

If the link to this show does not work, it was probably removed for
being non-trade-friendly.

Description / text file:
-------------------------
  
NEW DIFFERENT SOURCE TO CIRCULATION

GRATEFUL DEAD
Radio City Music Hall
1260 Avenue of the  (Sixth Avenue), 
Manhattan, New York City New York
October 31,1980

     A Gratefully Little Deadicated Feat Recording 
[Happy Jack's Masters Cassette Analog Collection #3]
 *** 24Bit Version *** 1st TIME IN CIRCULATION 

Taping: Friend & Happy Jack
All Transfering, Mastering & Editing by Happy Jack [aka; dedhed69] 12/2016

Source: SBD Recording [This is A 2nd Generation]
Location:  We were on stage Right [Jerry's side] patched into the mixingboard with Left/Right  plugs. My friend had a hook up on Jerry's side. It was crowded that night. Pretty overwhelmed for a young person

Lineage: mixingboard [Line out Left/Right] > TC-d5 [Line In recording level 3.5. No Dolbly] > Master Cassettes [Sony UCX90]

For The Clones [NOTE: THIS CLONE WAS MADE DECK TO DECK BEFORE THE AIWA SYSTEM WHICH CAUSED THE SPEED & PITCH CORRECTION PROBLEM] USING [Sony UCX90 Tapes]. The cause the tape heads on the tapes must not have been not that good

Then the clone tapes was [dubbed] - on a Aiwa CX-NA555
This Show used a Sony UCX90 with High (CrO2 Tape OFF] NO Dolby marked 

Tape Transfer: Sharp RT100 Deck [Sony UCX90] > Sony PCM-M10 > Scandisc Ultra MicroSD 8gb [class 10] on 12/27/2016
Settings: Sharp RT100 Deck: Dolby NR - OFF & CrO2 - OFF
Settings: Sony PCM-M10 manual record level at 6
Recording Mode: LPCM [wav] 96.00kHz/24bit

Recording Transfer: Sony PCM-M10 [ SanDisk Ultra [MicroSDHC] 8gb (class10)] > my Laptob HD by way of USB > 96.00kHz/24bit wav 

Mastering & Editing: 96.00kHz/24bit wav > AA3 was used for +/- db gains, removing some cable connection pops. Pitch correction & speed correction. No music was Lost, Altered and/or Touched. Still some tape warble

CD Wave Editor To Split Tracks & converted to Flac24 [Level 6]

Set 2  [Partial]
01. Brown Eyed Women ^ > 
02. Looks Like Rain
03. Deal > Outro

SET BREAK

Set 3 
01. Dont Ease Me In
02. Lost Sailor >
03. Saint Of Circumstance >
04. Franklins Tower > Drums ^
05. Fire On The Mountain ^ >
06. Not Fade Away >
07. Stella Blue >
08. Goin Down The Road Feeling Bad >
09. Good Lovin'

Show Notes
This was one of my favorite shows. Jerry's voice is clear & so is his guitar playing tight with Billy. 
The 3rd set is AWESOME. TOO MANY HIGHLIGHTS TO MENTION

Band Memberes
Jerry Garcia - guitar & vocals
Bob Weir - guitar & vocals
Bill Kreutzmann - drums
Phil Lesh - bass & vocals
Mickey Hart - percussion 
Brent Mydland - keyboards & vocals

Source Notes
^ - Fade in
^ - Drums are cut from tape flip [did not fade out in case want to use with patch]
^ - Fire Fades in with Space
The place was sold out & packed. Not my type of comfort zone for me as a young person then. Good thing my friend was big & knew where to go & had people around us.
I believe we had a bad cable and/or connection to the monitor somewhere now & then you here a click. I got rid of some major ones. Overall a nice recording very little audience & no echoing from the the Hall as I sampled all other recordings. Jerry's guitar is out front. This is not better than cousinits sbd. Just a different listen

SUPPORT THE ARTIST
http://www.dead.net/
Buy there Music. Go See Them LIVE !!

THIS IS ONE OF MY FAVORITE SHOWS . GREAT SET LIST, SOUND & AWESOME PLAYING FROM THE BAND THIS NIGHT !!!!!!

Happy Jack Final Notes
*** Thanks to my friend for teaching me & the great times taping from 77-90
# - I will go with this as being the 2nd generation of our original MASTER cassette due to I see  the extra step from tape to tape. BUT as far as I know this is the only monitor mix that exist of partial SET 2 & all of SET 3

  The rest has been stolen along with many others while I was in the Hospital for Spinal Bacteria Meningitas. The  good news there r about 75 tapes still here I would & Like them see the light & ears of others as my health is declinig. Plus it is good therapy for me to do this once again. I have not touched most of these tapes in 25 - 30 years. God Bless & Enjoy Jack

added md5
added ffp
added shn tool.len text

DO NOT SELL !!!!

ENJOY/SHARE WITH FAMILY & FRIENDS [That you trust & just loves the music]

Happy Jack
Please beware of us old school tapers who may have lost the tolerance for being disrespected! After so many years how many end up asking for a show!!!
Please Be Kind

MD5
3254ec353d30d140115c99e978a13d46 *gd1980-10-31 Partial Show.sbd.Set2.Track01. Brown Eyed Women.flac
0fec286dc56890e9551c1d2d88dce90c *gd1980-10-31 Partial Show.sbd.Set2.Track02. Looks Like Rain.flac
58c9632b69c0f60ca4c806922dfeb348 *gd1980-10-31 Partial Show.sbd.Set2.Track03. Deal  Outro.flac
6c214dbeef5199b3d09b9f81a72e04b5 *gd1980-10-31 Partial Show.sbd.Set3.Track01. Dont Ease Me In.flac
76c3ed57acf454f2dc598c1ed2650cf3 *gd1980-10-31 Partial Show.sbd.Set3.Track02. Lost Sailor .flac
edd722086805cc2e1c8607cfbc83e56c *gd1980-10-31 Partial Show.sbd.Set3.Track03. Saint Of Circumstance .flac
957ee7bb715cf2c235a1865c815f2819 *gd1980-10-31 Partial Show.sbd.Set3.Track04. Franklins Tower  Drums .flac
78075e86e55481ffd29217a206738077 *gd1980-10-31 Partial Show.sbd.Set3.Track05. Fire On The Mountain .flac
bc04061cbf6a58b9ea9371f92a122bbd *gd1980-10-31 Partial Show.sbd.Set3.Track06. Not Fade Away .flac
d28d83cc9ca3a776308dde6a94b9b67e *gd1980-10-31 Partial Show.sbd.Set3.Track07. Stella Blue .flac
33c7aa12133645b780b83e3367fddaef *gd1980-10-31 Partial Show.sbd.Set3.Track08. Goin Down The Road Feeling Bad .flac
d03d6540f6cf8141c0500c914f00e3fb *gd1980-10-31 Partial Show.sbd.Set3.Track09. Good Lovin.flac

    length     expanded size    cdr  WAVE problems  fmt   ratio  filename
     4:42.280     162593324 B   cxx   --   ---xx   flac  0.5940  gd1980-10-31 Partial Show.sbd,Set2.Track01. Brown Eyed Women.flac
     6:57.773     240637484 B   cxx   --   ---xx   flac  0.5910  gd1980-10-31 Partial Show.sbd.Set2.Track02. Looks Like Rain.flac
     6:34.547     227258924 B   cxx   --   ---xx   flac  0.6047  gd1980-10-31 Partial Show.sbd.Set2.Track03. Deal  Outro.flac
     3:44.200     129139244 B   cxx   --   ---xx   flac  0.6130  gd1980-10-31 Partial Show.sbd.Set3.Track01. Dont Ease Me In.flac
     6:11.013     213703724 B   cxx   --   ---xx   flac  0.6081  gd1980-10-31 Partial Show.sbd.Set3.Track02. Lost Sailor .flac
     6:40.040     230423084 B   cxx   --   ---xx   flac  0.6121  gd1980-10-31 Partial Show.sbd.Set3.Track03. Saint Of Circumstance .flac
    12:02.507     416163884 B   cxx   --   ---xx   flac  0.6084  gd1980-10-31 Partial Show.sbd.Set3.Track04. Franklins Tower  Drums .flac
    10:28.360     361935404 B   cxx   --   ---xx   flac  0.6171  gd1980-10-31 Partial Show.sbd.Set3.Track05. Fire On The Mountain .flac
     6:24.720     221598764 B   cxx   --   ---xx   flac  0.6220  gd1980-10-31 Partial Show.sbd.Set3.Track06. Not Fade Away .flac
     9:50.040     339863084 B   cxx   --   ---xx   flac  0.6156  gd1980-10-31 Partial Show.sbd.Set3.Track07. Stella Blue .flac
     6:01.280     208097324 B   cxx   --   ---xx   flac  0.6202  gd1980-10-31 Partial Show.sbd.Set3.Track08. Goin Down The Road Feeling Bad .flac
     6:23.136     220686368 B   cxx   --   ---xx   flac  0.6208  gd1980-10-31 Partial Show.sbd.Set3.Track09. Good Lovin.flac
    85:59.896    2972100612 B                            0.6110  (12 files)





More information about the bittorrent mailing list