[bittorrent] David Wax Museum Georgia Theatre Athens, Georgia 1/12/2017 (Schoeps CCM4V'S FOB)

Automated Mailer noreply-bt.e at etree.org
Fri Jan 13 17:44:14 UTC 2017


Band:           Other
Torrent Name:   David Wax Museum Georgia Theatre Athens, Georgia 1/12/2017 (Schoeps CCM4V'S FOB)
Uploaded by:    zmanatl
DB Link:        
Details:        http://bt.etree.org/details.php?id=590778

Contact the seeder at http://db.etree.org/zmanatl

If the link to this show does not work, it was probably removed for
being non-trade-friendly.

Description / text file:
-------------------------
David Wax Museum
Georgia Theatre
Athens, Georgia
1/12/2017

Source: Schoeps CCM4V's>Lunatec V2>Benchmark AD2K>
Sound Devices 722 (24/44)
FOB/DFC/KFC/ZFC/AARP Clamped To The Rail Of The Front Of The Balcony
DSP: Sound Devices 722>Sound Forge 10.0>CD Wave>flac(16)
ID3 Tagged In Foobar 2000
Recorded By: Z-Man
Seeded By: Z-Man

Disc I 

01 Yes Marie Yes
02 ?
03 ?
04 ?
05 ?
06 ?
07 ?
08 ?
09 El Toro
10 Banter
11 ?

david2017-01-12d01t01.flac:2f5b35efd24912bb7a6dbe758f0397bc
david2017-01-12d01t02.flac:f5805a2be4500c1cfe3112c97fe366c2
david2017-01-12d01t03.flac:73f13a63a3e3b274b3d74c9ad4b3898a
david2017-01-12d01t04.flac:55c632dbf66627cd59afd22376e6f3ec
david2017-01-12d01t05.flac:273f7b90fd37d81bf87cf12b588eb7b5
david2017-01-12d01t06.flac:c41fdcc2d61fb2f49c59dfd9145f9404
david2017-01-12d01t07.flac:fee69010d12e4e8e9ebe22ffa6e90e68
david2017-01-12d01t08.flac:66c9113e780c6429590cd86e195dc38d
david2017-01-12d01t09.flac:57e4bf7a507fc1074f292e9b142c5af6
david2017-01-12d01t10.flac:0385f2f95e5f55a9909443241a073db3
david2017-01-12d01t11.flac:c8119790265ce47fcfdaa7ead3df2b42

 length     expanded size    cdr  WAVE problems  fmt   ratio  filename
     3:56.45       41736284 B   ---   --   ---xx   flac  0.4828  david2017-01-12d01t01.flac
     3:40.53       38932700 B   ---   --   ---xx   flac  0.4335  david2017-01-12d01t02.flac
     3:03.48       32394140 B   ---   --   ---xx   flac  0.5033  david2017-01-12d01t03.flac
     3:54.26       41338796 B   ---   --   ---xx   flac  0.4807  david2017-01-12d01t04.flac
     5:06.43       54079580 B   ---   --   ---xx   flac  0.5167  david2017-01-12d01t05.flac
     4:38.61       49182716 B   ---   --   ---xx   flac  0.3624  david2017-01-12d01t06.flac
     2:42.00       28576844 B   ---   --   ---xx   flac  0.5238  david2017-01-12d01t07.flac
     4:41.02       49573148 B   ---   --   ---xx   flac  0.4988  david2017-01-12d01t08.flac
     4:42.47       49855388 B   ---   --   ---xx   flac  0.4866  david2017-01-12d01t09.flac
     1:50.49       19519292 B   ---   --   ---xx   flac  0.3150  david2017-01-12d01t10.flac
     5:09.53       54632300 B   ---   --   ---xx   flac  0.4777  david2017-01-12d01t11.flac
    43:26.52      459821188 B                            0.4679  (11 files)


























More information about the bittorrent mailing list