[bittorrent] Railroad Earth Georgia Theatre Athens, Georgia 1/12/2017 (Schoeps CCM4V'S FOB)

Automated Mailer noreply-bt.e at etree.org
Fri Jan 13 16:29:42 UTC 2017


Band:           Railroad Earth
Torrent Name:   Railroad Earth Georgia Theatre Athens, Georgia 1/12/2017 (Schoeps CCM4V'S FOB)
Uploaded by:    zmanatl
DB Link:        
Details:        http://bt.etree.org/details.php?id=590777

Contact the seeder at http://db.etree.org/zmanatl

If the link to this show does not work, it was probably removed for
being non-trade-friendly.

Description / text file:
-------------------------
Railroad Earth
Georgia Theatre
Athens, Georgia
1/12/2017

Source: Schoeps CCM4V's>Lunatec V2>Benchmark AD2K>
Sound Devices 722 (24/44)
FOB/DFC/KFC/ZFC/AARP Clamped To The Rail Of The Front Of The Balcony
DSP: Sound Devices 722>Sound Forge 10.0>CD Wave>flac(16)
ID3 Tagged In Foobar 2000
Recorded By: Z-Man
Seeded By: Z-Man

Disc I 1st Set

01 420
02 Head
03 When The Sun Gets In Your Blood
04 Bread And Water
05 Just So You Know
06 Crossing The Gap
07 Mourning Flies >
08 Lone Croft Farewell
09 Walk Beside Me 

Disc II 2nd Set

01 Chasin' a Rainbow
02 Colorado
03 Been Down This Road 

Disc III 2nd Set Con't

01 Saddle Of The Sun >
02 The Hunting Song >
03 Grandfather Mountain >
04 Black Bear >
05 Like a Buddha >
06 Spring-Heeled Jack
Encore:
07 RV
 
rre2017-01-12d01t01.flac:73ccee2d4d9eba00f3e26b90472a20f5
rre2017-01-12d01t02.flac:dc7e858af5421e4c3f0b50f0ee377abf
rre2017-01-12d01t03.flac:1d1973f3a8d83a40d61ab519600844d1
rre2017-01-12d01t04.flac:833f57f47227c39bf6f3d711ad377764
rre2017-01-12d01t05.flac:e21a1b0be0a5486d69c786bba16bdf47
rre2017-01-12d01t06.flac:43eb7f01cc707229397b741f394d717d
rre2017-01-12d01t07.flac:4abf4c3a733140f590440743ee87ebce
rre2017-01-12d01t08.flac:14f7f6aeb3ad0e60b98f96cd8893462b
rre2017-01-12d01t09.flac:2d01b279a97df335cd151c7db093f4ef
rre2017-01-12d02t01.flac:aa96ff4a2e83ebf037bb38a23f4dafe5
rre2017-01-12d02t02.flac:41f45b2571142eecbcd24b3e55655385
rre2017-01-12d02t03.flac:c3e4eb6a8773c6197aa062a0faddb308
rre2017-01-12d03t01.flac:4d241db1505264fa9eb33d3d97dbb350
rre2017-01-12d03t02.flac:6b36500a1fed5f745f238558ab57db9a
rre2017-01-12d03t03.flac:cb094d48ad6034cb4af0c67c99412d8f
rre2017-01-12d03t04.flac:9c6e3d4ae107a0534c815d76f838da2e
rre2017-01-12d03t05.flac:e11bfee2eb9b31b485e9a88b22da1035
rre2017-01-12d03t06.flac:2edfa543841c4297cb26707a85912811
rre2017-01-12d03t07.flac:f2d9aa92c43f23e512a561deed6d4a15

 length     expanded size    cdr  WAVE problems  fmt   ratio  filename
     4:12.70       44617484 B   ---   --   ---xx   flac  0.5541  rre2017-01-12d01t01.flac
    14:52.52      157471148 B   ---   --   ---xx   flac  0.5781  rre2017-01-12d01t02.flac
     7:32.12       79761068 B   ---   --   ---xx   flac  0.5417  rre2017-01-12d01t03.flac
     4:25.39       46837772 B   ---   --   ---xx   flac  0.5856  rre2017-01-12d01t04.flac
     8:32.03       90323900 B   ---   --   ---xx   flac  0.5456  rre2017-01-12d01t05.flac
     4:19.09       45708812 B   ---   --   ---xx   flac  0.5487  rre2017-01-12d01t06.flac
    14:54.11      157727516 B   ---   --   ---xx   flac  0.5437  rre2017-01-12d01t07.flac
     5:05.11       53827916 B   ---   --   ---xx   flac  0.5579  rre2017-01-12d01t08.flac
     7:13.38       76470620 B   ---   --   ---xx   flac  0.5397  rre2017-01-12d01t09.flac
     9:34.07      101270108 B   ---   --   ---xx   flac  0.5476  rre2017-01-12d02t01.flac
    10:07.05      107086604 B   ---   --   ---xx   flac  0.5445  rre2017-01-12d02t02.flac
     4:52.08       51527660 B   ---   --   ---xx   flac  0.4878  rre2017-01-12d02t03.flac
     5:56.11       62824316 B   ---   --   ---xx   flac  0.5553  rre2017-01-12d03t01.flac
    14:01.51      148472396 B   ---   --   ---xx   flac  0.5751  rre2017-01-12d03t02.flac
    10:20.10      109391564 B   ---   --   ---xx   flac  0.5394  rre2017-01-12d03t03.flac
    11:51.06      125434556 B   ---   --   ---xx   flac  0.4547  rre2017-01-12d03t04.flac
    13:00.54      137719052 B   ---   --   ---xx   flac  0.6010  rre2017-01-12d03t05.flac
    14:53.23      157579340 B   ---   --   ---xx   flac  0.5858  rre2017-01-12d03t06.flac
     6:22.71       67551836 B   ---   --   ---xx   flac  0.5353  rre2017-01-12d03t07.flac
   172:06.41     1821603668 B                            0.5513  (19 files)














More information about the bittorrent mailing list