[bittorrent] gd1993-09-25.137562.nac300-cp4.miller.flac16

Automated Mailer noreply-bt.e at etree.org
Fri Jan 13 06:01:22 UTC 2017


Band:           Grateful Dead
Torrent Name:   gd1993-09-25.137562.nac300-cp4.miller.flac16
Uploaded by:    norm
DB Link:        
Details:        http://bt.etree.org/details.php?id=590776

Contact the seeder at http://db.etree.org/norm

If the link to this show does not work, it was probably removed for
being non-trade-friendly.

Description / text file:
-------------------------
Grateful Dead - September 25, 1993
Boston Garden - Boston, MA

Recording Info:
Nakamichi 300/CP4 > Cassette Master (Sony TC-D5M/TDK MA110)

Transfer Info:
Cassette Master (Nakamichi CR-7A) > Tascam DA-3000 (DSF 1-bit/5.8 MHz) >
KORG AudioGate 4 > Adobe Audition CC 2015 > Samplitude Pro X3 Suite > FLAC/24
(1 Disc FLAC)

Recorded and Mastered By Charlie Miller
charliemiller87 at earthlink.net
January 12, 2017

Notes:
-- I lost my 2nd set tape
-- The whole set fit on one side of the tape so there are no cuts
-- 137557 24bit > 16 bit with r8brain

Set 1:
01 - Tuning
02 - Cold Rain And Snow
03 - Wang Dang Doodle
04 - Loser
05 - It's All Over Now
06 - Just Like Tom Thumb's Blues
07 - Cassidy
08 - Deal


SHNTOOL OUTPUT:
    length     expanded size    cdr  WAVE problems  fmt   ratio  filename
     2:52.59       30479612 B   ---   --   ---xx   flac  0.5568  01 Tuning.flac
     6:24.15       67772924 B   ---   --   ---xx   flac  0.6723  02 Cold Rain And Snow.flac
     6:27.24       68323292 B   ---   --   ---xx   flac  0.6564  03 Wang Dang Doodle.flac
     7:23.30       78215804 B   ---   --   ---xx   flac  0.6584  04 Loser.flac
     7:17.67       77244428 B   ---   --   ---xx   flac  0.6614  05 It's All Over Now.flac
     6:05.28       64451900 B   ---   --   ---xx   flac  0.6563  06 Just Like Tom Thumb's Blues.flac
     7:13.45       76487084 B   ---   --   ---xx   flac  0.6701  07 Cassidy.flac
     8:53.10       94044764 B   ---   --   ---xx   flac  0.6776  08 Deal.flac
    52:37.53      557019808 B                            0.6593  (8 files)




More information about the bittorrent mailing list