[bittorrent] gd1993-09-25.137557.set1.nak304.miller.flac24

Automated Mailer noreply-bt.e at etree.org
Fri Jan 13 03:42:29 UTC 2017


Band:           Grateful Dead
Torrent Name:   gd1993-09-25.137557.set1.nak304.miller.flac24
Uploaded by:    greendude
DB Link:        
Details:        http://bt.etree.org/details.php?id=590775

Contact the seeder at http://db.etree.org/greendude

If the link to this show does not work, it was probably removed for
being non-trade-friendly.

Description / text file:
-------------------------
Grateful Dead - September 25, 1993
Boston Garden - Boston, MA

Recording Info:
Nakamichi 300/CP4 > Cassette Master (Sony TC-D5M/TDK MA110)

Transfer Info:
Cassette Master (Nakamichi CR-7A) > Tascam DA-3000 (DSF 1-bit/5.8 MHz) >
KORG AudioGate 4 > Adobe Audition CC 2015 > Samplitude Pro X3 Suite > FLAC/24
(1 Disc FLAC)

Recorded and Mastered By Charlie Miller
charliemiller87 at earthlink.net
January 12, 2017

Notes:
-- I lost my 2nd set tape
-- The whole set fit on one side of the tape so there are no cuts

Set 1:
01 - Tuning
02 - Cold Rain And Snow
03 - Wang Dang Doodle
04 - Loser
05 - It's All Over Now
06 - Just Like Tom Thumb's Blues
07 - Cassidy
08 - Deal


SHNTOOL OUTPUT:
    length     expanded size    cdr  WAVE problems  fmt   ratio  filename
     2:52.792      99528206 B   cxx   --   ---xx   flac  0.6847  01 Tuning.flac
     6:24.203     221300858 B   cxx   --   ---xx   flac  0.7087  02 Cold Rain And Snow.flac
     6:27.316     223094300 B   cxx   --   ---xx   flac  0.7035  03 Wang Dang Doodle.flac
     7:23.401     255399122 B   cxx   --   ---xx   flac  0.7059  04 Loser.flac
     7:17.900     252230456 B   cxx   --   ---xx   flac  0.7082  05 It's All Over Now.flac
     6:05.361     210448136 B   cxx   --   ---xx   flac  0.7080  06 Just Like Tom Thumb's Blues.flac
     7:13.612     249760724 B   cxx   --   ---xx   flac  0.7065  07 Cassidy.flac
     8:53.109     307070660 B   cxx   --   ---xx   flac  0.7085  08 Deal.flac
    52:37.695    1818832462 B                            0.7059  (8 files)




More information about the bittorrent mailing list