[bittorrent] gd1980-10-14.137560.sbd.eaton.miller.flac1648

Automated Mailer noreply-bt.e at etree.org
Fri Jan 13 03:37:24 UTC 2017


Band:           Grateful Dead
Torrent Name:   gd1980-10-14.137560.sbd.eaton.miller.flac1648
Uploaded by:    greendude
DB Link:        
Details:        http://bt.etree.org/details.php?id=590774

Contact the seeder at http://db.etree.org/greendude

If the link to this show does not work, it was probably removed for
being non-trade-friendly.

Description / text file:
-------------------------
Grateful Dead - October 14, 1980
Warfield Theatre - San Francisco, CA

Recording Info:
SBD -> Master Reel (10in 15ips 1/2 trk) > Reel > Dat (Panasonic SV-3800/48k)

Transfer Info:
Dat (Sony R500) > Sound Devices 744T > Samplitude Pro X3 Suite > FLAC/48k
(1 DVD FLAC)

All Transfers and Mastering By Charlie Miller
charliemiller87 at earthlink.net
January 12, 2017

Notes:
-- Missing Acoustic Set
-- Thanks to Rob Eaton for the Dats

Set 1:
01 - Alabama Getaway >
02 - Greatest Story Ever Told
03 - Friend Of The Devil
04 - Me And My Uncle >
05 - Mexicali Blues
06 - Candyman
07 - Little Red Rooster
08 - Tennessee Jed >
09 - Let It Grow >
10 - The Wheel >
11 - The Music Never Stopped

Set 2:
12 - Scarlet Begonias >
13 - Fire On The Mountain
14 - Estimated Prophet >
15 - Terrapin Station >
16 - Playing In The Band >
17 - Drums >
18 - Space >
19 - I Need A Miracle >
20 - Uncle John's Band >
21 - Morning Dew >
22 - Playing In The Band >
23 - Good Lovin'

Encore:
24 - Brokedown Palace


SHNTOOL OUTPUT:
    length     expanded size    cdr  WAVE problems  fmt   ratio  filename
     4:34.420      52688596 B   cxx   --   ---xx   flac  0.5670  01 Alabama Getaway.flac
     4:06.750      47376012 B   cxx   --   ---xx   flac  0.5647  02 Greatest Story Ever Told.flac
     9:47.978     112891836 B   cxx   --   ---xx   flac  0.5518  03 Friend Of The Devil.flac
     2:57.551      34089768 B   cxx   --   ---xx   flac  0.5869  04 Me And My Uncle.flac
     4:38.090      53393312 B   cxx   --   ---xx   flac  0.5989  05 Mexicali Blues.flac
     7:27.337      85888808 B   cxx   --   ---xx   flac  0.5569  06 Candyman.flac
     8:19.892      95979396 B   cxx   --   ---xx   flac  0.5783  07 Little Red Rooster.flac
     8:52.431     102226720 B   cxx   --   ---xx   flac  0.5604  08 Tennessee Jed.flac
    11:12.815     129180500 B   cxx   --   ---xx   flac  0.5947  09 Let It Grow.flac
     5:04.995      58558992 B   cxx   --   ---xx   flac  0.5791  10 The Wheel.flac
     7:28.579      86127288 B   cxx   --   ---xx   flac  0.5961  11 The Music Never Stopped.flac
     9:59.697     115141788 B   cxx   --   ---xx   flac  0.5799  12 Scarlet Begonias.flac
    10:04.191     116004740 B   cxx   --   ---xx   flac  0.5694  13 Fire On The Mountain.flac
     9:28.386     109130136 B   cxx   --   ---xx   flac  0.5632  14 Estimated Prophet.flac
    12:04.317     139068856 B   cxx   --   ---xx   flac  0.5394  15 Terrapin Station.flac
     7:18.741      84238324 B   cxx   --   ---xx   flac  0.5625  16 Playing In The Band.flac
     9:51.592     113585724 B   cxx   --   ---xx   flac  0.5078  17 Drums.flac
     6:10.287      71095152 B   cxx   --   ---xx   flac  0.4868  18 Space.flac
     3:46.246      43439232 B   cxx   --   ---xx   flac  0.5771  19 I Need A Miracle.flac
     6:42.288      77239368 B   cxx   --   ---xx   flac  0.5834  20 Uncle John's Band.flac
    10:11.240     117358148 B   cxx   --   ---xx   flac  0.5575  21 Morning Dew.flac
     2:49.031      32454028 B   cxx   --   ---xx   flac  0.5814  22 Playing In The Band.flac
    13:33.521     156196092 B   cxx   --   ---xx   flac  0.6017  23 Good Lovin'.flac
     5:48.499      66911896 B   cxx   --   ---xx   flac  0.5783  24 Brokedown Palace.flac
   182:18.873    2100264712 B                            0.5664  (24 files)




More information about the bittorrent mailing list