[bittorrent] gd1970-01-03.137559.sbd.gans.miller.flac1648

Automated Mailer noreply-bt.e at etree.org
Fri Jan 13 03:33:57 UTC 2017


Band:           Grateful Dead
Torrent Name:   gd1970-01-03.137559.sbd.gans.miller.flac1648
Uploaded by:    greendude
DB Link:        
Details:        http://bt.etree.org/details.php?id=590773

Contact the seeder at http://db.etree.org/greendude

If the link to this show does not work, it was probably removed for
being non-trade-friendly.

Description / text file:
-------------------------
Grateful Dead - January 3, 1970
Fillmore East - New York, NY

Recording Info:
SBD > Master Reel > Cassette > Dat (48k)

Transfer Info:
Dat (Sony R500) > Sound Devices 744T > Samplitude Pro X3 Suite > FLAC/48k
(1 DVD FLAC)

All Transfers and Mastering By Charlie Miller
charliemiller87 at earthlink.net
January 12, 2017

Notes:
-- There are numerous jams throughout the Alligator jam
-- There is a High Time false start after I Know You Rider
-- There is a cut in TIFTOO at 18:18
-- Thanks to David Gans for supplying the Dats
-- There are some level fluctuations that remain but most have been fixed

Early Show:
01 - Morning Dew
02 - Me And My Uncle
03 - Hard To Handle
04 - Cumberland Blues
05 - Cold Rain And Snow
06 - Alligator >
07 - Drums >
08 - Jam >
09 - Alligator >
10 - Feedback

Encore:
11 - Uncle John's Band

Late Show:
12 - Casey Jones
13 - Mama Tried
14 - Big Boss Man
15 - China Cat Sunflower >
16 - I Know You Rider
17 - Mason's Children
18 - That's It For The Other One >
19 - Cosmic Charlie
20 - Uncle John's Band
21 - Black Peter
22 - Dire Wolf
23 - Good Lovin'
24 - Dancin' In The Street

Encore:
25 - Saint Stephen >
26 - In The Midnight Hour


SHNTOOL OUTPUT:
    length     expanded size    cdr  WAVE problems  fmt   ratio  filename
     9:19.648     107452404 B   cxx   --   ---xx   flac  0.6144  01 Morning Dew.flac
     3:20.167      38432076 B   cxx   --   ---xx   flac  0.6262  02 Me And My Uncle.flac
     4:22.830      50463408 B   cxx   --   ---xx   flac  0.6324  03 Hard To Handle.flac
     5:40.745      65423008 B   cxx   --   ---xx   flac  0.6272  04 Cumberland Blues.flac
     5:15.571      60589744 B   cxx   --   ---xx   flac  0.6067  05 Cold Rain And Snow.flac
     3:58.121      45719240 B   cxx   --   ---xx   flac  0.6173  06 Alligator.flac
     1:57.588      22576964 B   cxx   --   ---xx   flac  0.5528  07 Drums.flac
    10:48.244     124462816 B   cxx   --   ---xx   flac  0.6263  08 Jam.flac
     1:10.594      13554020 B   cxx   --   ---xx   flac  0.6629  09 Alligator.flac
     7:37.021      87748136 B   cxx   --   ---xx   flac  0.5381  10 Feedback.flac
     6:53.444      79381336 B   cxx   --   ---xx   flac  0.5751  11 Uncle John's Band.flac
     4:22.120      50327180 B   cxx   --   ---xx   flac  0.6287  12 Casey Jones.flac
     2:51.475      32923264 B   cxx   --   ---xx   flac  0.6091  13 Mama Tried.flac
     4:51.929      56050376 B   cxx   --   ---xx   flac  0.6051  14 Big Boss Man.flac
     5:08.042      59144148 B   cxx   --   ---xx   flac  0.6523  15 China Cat Sunflower.flac
     5:18.129      61080776 B   cxx   --   ---xx   flac  0.6094  16 I Know You Rider.flac
     5:18.642      61179368 B   cxx   --   ---xx   flac  0.6365  17 Mason's Children.flac
    20:33.750     236880040 B   cxx   --   ---xx   flac  0.6214  18 That's It For The Other One.flac
     7:13.461      83224592 B   cxx   --   ---xx   flac  0.6063  19 Cosmic Charlie.flac
     6:09.951      71030628 B   cxx   --   ---xx   flac  0.5861  20 Uncle John's Band.flac
     8:44.220     100650368 B   cxx   --   ---xx   flac  0.5730  21 Black Peter.flac
     4:45.007      54721304 B   cxx   --   ---xx   flac  0.5357  22 Dire Wolf.flac
     9:13.449     106262212 B   cxx   --   ---xx   flac  0.6190  23 Good Lovin'.flac
    10:50.027     124805132 B   cxx   --   ---xx   flac  0.6315  24 Dancin' In The Street.flac
     6:12.962      71608788 B   cxx   --   ---xx   flac  0.5947  25 Saint Stephen.flac
     9:18.691     107268756 B   cxx   --   ---xx   flac  0.6116  26 In The Midnight Hour.flac
   171:15.828    1972960084 B                            0.6081  (26 files)




More information about the bittorrent mailing list