[bittorrent] gd1982-04-14.137550.m160.streeter.miller.flac24

Automated Mailer noreply-bt.e at etree.org
Fri Jan 13 00:01:44 UTC 2017


Band:           Grateful Dead
Torrent Name:   gd1982-04-14.137550.m160.streeter.miller.flac24
Uploaded by:    greendude
DB Link:        
Details:        http://bt.etree.org/details.php?id=590772

Contact the seeder at http://db.etree.org/greendude

If the link to this show does not work, it was probably removed for
being non-trade-friendly.

Description / text file:
-------------------------
Grateful Dead - April 14, 1982
Glens Falls Civic Center - Glens Falls, NY

Recording Info:
(FOB) Beyer M160 > Cassette Master (Sony TC-D5M/TDK MA-C90)

Transfer Info:
Cassette Master (Nakamichi CR-7A) > Tascam DA-3000 (DSF 1-bit/5.8 MHz) >
KORG AudioGate 4 > Adobe Audition CC 2015 > Samplitude Pro X3 Suite > FLAC/24
(1 Disc FLAC)

All Transfers and Mastering By Charlie Miller
charliemiller87 at earthlink.net
January 11, 2017

Patch Info:
(FOB) Sennheiser 421 > Cassette Master (shnid=26234) supplies:
Drums (7:42 - end of track)
Space (0:00 - 0:12)

Notes:
-- Recorded By Frank Streeter

Set 1:
01 - Tuning
02 - Jack Straw
03 - They Love Each Other
04 - Me And My Uncle >
05 - Big River
06 - Deep Elem Blues >
07 - Little Red Rooster
08 - Brown Eyed Women
09 - Lazy Lightnin' >
10 - Supplication >
11 - Bertha

Set 2:
12 - China Cat Sunflower >
13 - I Know You Rider
14 - Playing In The Band >
15 - Drums >
16 - Space >
17 - The Wheel >
18 - I Need A Miracle >
19 - Black Peter >
20 - Playing In The Band >
21 - Johnny B. Goode

Encore:
22 - U.S. Blues


SHNTOOL OUTPUT:
    length     expanded size    cdr  WAVE problems  fmt   ratio  filename
     2:00.993      69691916 B   cxx   --   ---xx   flac  0.6659  01 Tuning.flac
     5:40.709     196248596 B   cxx   --   ---xx   flac  0.6846  02 Jack Straw.flac
     8:46.665     303358808 B   cxx   --   ---xx   flac  0.7038  03 They Love Each Other.flac
     3:01.655     104633474 B   cxx   --   ---xx   flac  0.6918  04 Me And My Uncle.flac
     5:26.066     187814330 B   cxx   --   ---xx   flac  0.6915  05 Big River.flac
     6:15.461     216265334 B   cxx   --   ---xx   flac  0.6903  06 Deep Elem Blues.flac
     8:00.069     276519848 B   cxx   --   ---xx   flac  0.6874  07 Little Red Rooster.flac
     6:20.932     219416588 B   cxx   --   ---xx   flac  0.7029  08 Brown Eyed Women.flac
     3:29.502     120673046 B   cxx   --   ---xx   flac  0.7058  09 Lazy Lightning.flac
     5:27.673     188739488 B   cxx   --   ---xx   flac  0.7065  10 Supplication.flac
     7:01.804     242959298 B   cxx   --   ---xx   flac  0.7044  11 Bertha.flac
     5:18.355     183372416 B   cxx   --   ---xx   flac  0.7021  12 China Cat Sunflower.flac
     9:08.973     316208540 B   cxx   --   ---xx   flac  0.7064  13 I Know You Rider.flac
    15:45.101     544378292 B   cxx   --   ---xx   flac  0.7104  14 Playing In The Band.flac
     7:54.039     273046760 B   cxx   --   ---xx   flac  0.6542  15 Drums.flac
     6:10.753     213553742 B   cxx   --   ---xx   flac  0.6740  16 Space.flac
     6:33.788     226821884 B   cxx   --   ---xx   flac  0.6932  17 The Wheel.flac
     3:56.311     136114958 B   cxx   --   ---xx   flac  0.7029  18 I Need A Miracle.flac
     8:31.602     294682544 B   cxx   --   ---xx   flac  0.6938  19 Black Peter.flac
     4:10.728     144419438 B   cxx   --   ---xx   flac  0.6960  20 Playing In The Band.flac
     4:23.969     152046332 B   cxx   --   ---xx   flac  0.7027  21 Johnny B Goode.flac
     5:13.836     180769802 B   cxx   --   ---xx   flac  0.7035  22 US Blues.flac
   138:38.983    4791735434 B                            0.6956  (22 files)




More information about the bittorrent mailing list