[bittorrent] gd1982-04-14.137552.m160.streeter.miller.flac16

Automated Mailer noreply-bt.e at etree.org
Thu Jan 12 20:10:40 UTC 2017


Band:           Grateful Dead
Torrent Name:   gd1982-04-14.137552.m160.streeter.miller.flac16
Uploaded by:    norm
DB Link:        
Details:        http://bt.etree.org/details.php?id=590770

Contact the seeder at http://db.etree.org/norm

If the link to this show does not work, it was probably removed for
being non-trade-friendly.

Description / text file:
-------------------------
Grateful Dead - April 14, 1982
Glens Falls Civic Center - Glens Falls, NY

Recording Info:
(FOB) Beyer M160 > Cassette Master (Sony TC-D5M/TDK MA-C90)

Transfer Info:
Cassette Master (Nakamichi CR-7A) > Tascam DA-3000 (DSF 1-bit/5.8 MHz) >
KORG AudioGate 4 > Adobe Audition CC 2015 > Samplitude Pro X3 Suite > FLAC/24
(1 Disc FLAC)

All Transfers and Mastering By Charlie Miller
charliemiller87 at earthlink.net
January 11, 2017

Patch Info:
(FOB) Sennheiser 421 > Cassette Master (shnid=26234) supplies:
Drums (7:42 - end of track)
Space (0:00 - 0:12)

Notes:
-- Recorded By Frank Streeter
-- 137550 24bit > 16bit with r8brain

Set 1:
01 - Tuning
02 - Jack Straw
03 - They Love Each Other
04 - Me And My Uncle >
05 - Big River
06 - Deep Elem Blues >
07 - Little Red Rooster
08 - Brown Eyed Women
09 - Lazy Lightnin' >
10 - Supplication >
11 - Bertha

Set 2:
12 - China Cat Sunflower >
13 - I Know You Rider
14 - Playing In The Band >
15 - Drums >
16 - Space >
17 - The Wheel >
18 - I Need A Miracle >
19 - Black Peter >
20 - Playing In The Band >
21 - Johnny B. Goode

Encore:
22 - U.S. Blues


SHNTOOL OUTPUT:
    length     expanded size    cdr  WAVE problems  fmt   ratio  filename
     2:00.74       21342092 B   ---   --   ---xx   flac  0.5447  01 Tuning.flac
     5:40.53       60100700 B   ---   --   ---xx   flac  0.6005  02 Jack Straw.flac
     8:46.50       92904044 B   ---   --   ---xx   flac  0.6207  03 They Love Each Other.flac
     3:01.49       32043692 B   ---   --   ---xx   flac  0.6090  04 Me And My Uncle.flac
     5:26.05       57518204 B   ---   --   ---xx   flac  0.6075  05 Big River.flac
     6:15.35       66232364 B   ---   --   ---xx   flac  0.6051  06 Deep Elem Blues.flac
     8:00.05       84683804 B   ---   --   ---xx   flac  0.6033  07 Little Red Rooster.flac
     6:20.70       67196684 B   ---   --   ---xx   flac  0.6060  08 Brown Eyed Women.flac
     3:29.37       36954668 B   ---   --   ---xx   flac  0.6176  09 Lazy Lightning.flac
     5:27.51       57802796 B   ---   --   ---xx   flac  0.6178  10 Supplication.flac
     7:01.61       74407916 B   ---   --   ---xx   flac  0.6237  11 Bertha.flac
     5:18.26       56156396 B   ---   --   ---xx   flac  0.6207  12 China Cat Sunflower.flac
     9:08.73       96838940 B   ---   --   ---xx   flac  0.6310  13 I Know You Rider.flac
    15:45.08      166716860 B   ---   --   ---xx   flac  0.6232  14 Playing In The Band.flac
     7:54.03       83620700 B   ---   --   ---xx   flac  0.5555  15 Drums.flac
     6:10.56       65399756 B   ---   --   ---xx   flac  0.5484  16 Space.flac
     6:33.59       69464012 B   ---   --   ---xx   flac  0.6006  17 The Wheel.flac
     3:56.23       41684540 B   ---   --   ---xx   flac  0.6293  18 I Need A Miracle.flac
     8:31.46       90248636 B   ---   --   ---xx   flac  0.5870  19 Black Peter.flac
     4:10.54       44227052 B   ---   --   ---xx   flac  0.5964  20 Playing In The Band.flac
     4:23.73       46564940 B   ---   --   ---xx   flac  0.6335  21 Johnny B Goode.flac
     5:13.64       55363772 B   ---   --   ---xx   flac  0.6347  22 US Blues.flac
   138:39.00     1467472568 B                            0.6070  (22 files)




More information about the bittorrent mailing list