[bittorrent] gd1991-06-17.137547.sbd.miller.flac16

Automated Mailer noreply-bt.e at etree.org
Thu Jan 12 15:34:38 UTC 2017


Band:           Grateful Dead
Torrent Name:   gd1991-06-17.137547.sbd.miller.flac16
Uploaded by:    norm
DB Link:        
Details:        http://bt.etree.org/details.php?id=590767

Contact the seeder at http://db.etree.org/norm

If the link to this show does not work, it was probably removed for
being non-trade-friendly.

Description / text file:
-------------------------
Grateful Dead - June 17, 1991
Giants Stadium - East Rutherford, NJ

Recording Info:
SBD > Cassette Master (TDK SA-X100)

Transfer Info:
Cassette Master (Nakamichi DR-1) > Tascam DA-3000 (DSF 1-bit/5.8 MHz) >
KORG AudioGate 4 > Adobe Audition CC 2015 > Samplitude Pro X3 Suite > FLAC/24
(1 Disc FLAC)

All Transfers and Mastering By Charlie Miller
charliemiller87 at earthlink.net
January 11, 2017

Notes:
-- Two sets of masters were used to make show complete
-- This is the 24bit 137545 > 16bit with r8brain

Set 1:
01 - Eyes Of The World >
02 - Walking Blues
03 - Brown Eyed Women
04 - Dark Star Jam >
05 - When I Paint My Masterpiece
06 - Loose Lucy
07 - Cassidy >
08 - Might As Well

Set 2:
09 - Saint Of Circumstance >
10 - Ship Of Fools >
11 - Dark Star Jam >
12 - Truckin' >
13 - New Speedway Boogie >
14 - Uncle John's Band >
15 - Dark Star Jam >
16 - Drums >
17 - Space >
18 - China Doll >
19 - Playing In The Band >
20 - Dark Star Jam >
21 - Sugar Magnolia

Encore:
22 - The Weight


SHNTOOL OUTPUT:
    length     expanded size    cdr  WAVE problems  fmt   ratio  filename
    15:43.04      166354652 B   ---   --   ---xx   flac  0.6031  01 Eyes Of The World.flac
     6:55.57       73340108 B   ---   --   ---xx   flac  0.5859  02 Walkin' Blues.flac
     6:04.23       64263740 B   ---   --   ---xx   flac  0.6358  03 Brown Eyed Women.flac
     1:31.29       16120652 B   ---   --   ---xx   flac  0.5243  04 Dark Star Jam.flac
     6:20.74       67206092 B   ---   --   ---xx   flac  0.5776  05 When I Paint My Masterpiece.flac
     8:09.30       86330204 B   ---   --   ---xx   flac  0.6168  06 Loose Lucy.flac
     7:04.69       74955932 B   ---   --   ---xx   flac  0.6347  07 Cassidy.flac
     6:17.26       66563996 B   ---   --   ---xx   flac  0.6581  08 Might As Well.flac
     9:15.18       97944380 B   ---   --   ---xx   flac  0.6242  09 Saint Of Circumstance.flac
     7:51.57       83218508 B   ---   --   ---xx   flac  0.6008  10 Ship Of Fools.flac
     1:15.72       13399388 B   ---   --   ---xx   flac  0.5537  11 Dark Star Jam.flac
     6:49.35       72229964 B   ---   --   ---xx   flac  0.6427  12 Truckin'.flac
    10:06.64      107048972 B   ---   --   ---xx   flac  0.6054  13 New Speedway Boogie.flac
    13:13.38      139974620 B   ---   --   ---xx   flac  0.6088  14 Uncle John's Band.flac
     6:44.57       71399708 B   ---   --   ---xx   flac  0.5992  15 Dark Star Jam.flac
    11:07.33      117736460 B   ---   --   ---xx   flac  0.4827  16 Drums.flac
     8:21.09       88397612 B   ---   --   ---xx   flac  0.5146  17 Space.flac
     5:10.24       54740492 B   ---   --   ---xx   flac  0.5612  18 China Doll.flac
     4:15.01       44984396 B   ---   --   ---xx   flac  0.6018  19 Playing In The Band.flac
     0:16.29        2890652 B   ---   --   ---xx   flac  0.4675  20 Dark Star Jam.flac
     9:14.63       97873820 B   ---   --   ---xx   flac  0.6351  21 Sugar Magnolia.flac
     5:56.35       62880764 B   ---   --   ---xx   flac  0.6047  22 The Weight.flac
   157:46.22     1669855112 B                            0.5962  (22 files)





More information about the bittorrent mailing list