[bittorrent] Cold Heart Canyon Smith's Olde Bar Atlanta, Georgia 1/11/2017 (Schoeps CCM4V'S FOB)

Automated Mailer noreply-bt.e at etree.org
Thu Jan 12 14:51:38 UTC 2017


Band:           Other
Torrent Name:   Cold Heart Canyon Smith's Olde Bar Atlanta, Georgia 1/11/2017 (Schoeps CCM4V'S FOB)
Uploaded by:    zmanatl
DB Link:        
Details:        http://bt.etree.org/details.php?id=590766

Contact the seeder at http://db.etree.org/zmanatl

If the link to this show does not work, it was probably removed for
being non-trade-friendly.

Description / text file:
-------------------------
Cold Heart Canyon
Smith's Olde Bar
Atlanta, Georgia
1/11/2017

Source: Schoeps CCM4V's>Lunatec V2>Benchmark AD2K>
Sound Devices 722 (24/44)
FOB/DFC/KFC/ZFC/AARP 17' From Stage, 7 1/2' High
DSP: Sound Devices 722>Sound Forge 10.0>CD Wave>flac(16)
ID3 Tagged In Foobar 2000
Recorded By: Z-Man
Seeded By: Z-Man

Disc I 

01 Banter/Tuning
02 Whiskey >
03 I Won't Be Home
04 Cryin' Shame
05 Frankly
06 Blood And Wine
07 Pentagram
08 Shane Rabbit
09 Avalanche
10 Drink Myself
11 Crazy

cold2017-01-11d01t01.flac:0b1927e0ef3e2d8881652e1106dd37b7
cold2017-01-11d01t02.flac:be3ca0da298b2b45d1288b139ac8648b
cold2017-01-11d01t03.flac:419a6b1f3f9d8f06cc42febbc32ffc41
cold2017-01-11d01t04.flac:c66648123973ac8831db87a3b8ee8f31
cold2017-01-11d01t05.flac:c4b05edd2ce9fd7091250157d5beac4a
cold2017-01-11d01t06.flac:37264485d45ae491d77577c9cd5cd7a2
cold2017-01-11d01t07.flac:989b6d338f1852d3b9497a0831e5f58b
cold2017-01-11d01t08.flac:f0728b017bbfb5893ee8bc8d752f52d7
cold2017-01-11d01t09.flac:bcd829ae6e8996e4e13e1277fd6543ac
cold2017-01-11d01t10.flac:d14c83ad4a5bbdd5d05467570b29d99b
cold2017-01-11d01t11.flac:f533f70661e2c1295fed4447da0cdc39

  length     expanded size    cdr  WAVE problems  fmt   ratio  filename
     2:17.15       24202124 B   ---   --   ---xx   flac  0.3355  cold2017-01-11d01t01.flac
     2:50.51       30107996 B   ---   --   ---xx   flac  0.5045  cold2017-01-11d01t02.flac
     4:10.25       44158844 B   ---   --   ---xx   flac  0.4342  cold2017-01-11d01t03.flac
     3:11.26       33753596 B   ---   --   ---xx   flac  0.4760  cold2017-01-11d01t04.flac
     4:57.63       52539020 B   ---   --   ---xx   flac  0.4359  cold2017-01-11d01t05.flac
     4:57.59       52529612 B   ---   --   ---xx   flac  0.4591  cold2017-01-11d01t06.flac
     3:57.55       41936204 B   ---   --   ---xx   flac  0.4871  cold2017-01-11d01t07.flac
     5:04.21       53675036 B   ---   --   ---xx   flac  0.4784  cold2017-01-11d01t08.flac
     5:59.55       63457004 B   ---   --   ---xx   flac  0.3869  cold2017-01-11d01t09.flac
     4:39.34       49295612 B   ---   --   ---xx   flac  0.5090  cold2017-01-11d01t10.flac
     4:17.33       45412460 B   ---   --   ---xx   flac  0.4897  cold2017-01-11d01t11.flac
    46:23.62      491067508 B                            0.4552  (11 files)









More information about the bittorrent mailing list