[bittorrent] Wrinkled Neck Mules Smith's Olde Bar Atlanta, Georgia 1/11/2017 (Schoeps CCM4V'S FOB)

Automated Mailer noreply-bt.e at etree.org
Thu Jan 12 05:56:28 UTC 2017


Band:           Other
Torrent Name:   Wrinkled Neck Mules Smith's Olde Bar Atlanta, Georgia 1/11/2017 (Schoeps CCM4V'S FOB)
Uploaded by:    zmanatl
DB Link:        
Details:        http://bt.etree.org/details.php?id=590764

Contact the seeder at http://db.etree.org/zmanatl

If the link to this show does not work, it was probably removed for
being non-trade-friendly.

Description / text file:
-------------------------
Wrinkled Neck Mules
Smith's Olde Bar
Atlanta, Georgia
1/11/2017

Source: Schoeps CCM4V's>Lunatec V2>Benchmark AD2K>
Sound Devices 722 (24/44)
FOB/DFC/KFC/ZFC/AARP 17' From Stage, 7 1/2' High
DSP: Sound Devices 722>Sound Forge 10.0>CD Wave>flac(16)
ID3 Tagged In Foobar 2000
Recorded By: Z-Man
Seeded By: Z-Man

Disc I 

01 Sugar Bowl
02 Okeechobee
03 Liza
04 Heaven's High
05 Liberty Bell
06 Lonesome, On'ry, And Mean
07 ?
08 Whistlers And Sparklers


09 Push The Pedal
10 Double Blade
11 

Disc II 

01 Catfish And Color TVs
02 Central Daylight Time >
03 Cadillac Limousine 
04 Stolen Horses
05 ?
06 Let The Led Fly
07 When The Wheels Touch Down
Encore:
08 Banter
09 17 Years More
10 Mecklenburg County 

wrinkled2017-01-11d01t01.flac:0df317add963fd9077bc023c8576f6bd
wrinkled2017-01-11d01t02.flac:192b77199596d22d7e21095f7076f434
wrinkled2017-01-11d01t03.flac:61a5951655e84a04109470950373655c
wrinkled2017-01-11d01t04.flac:e2fc963c186dab980c4f0b1aca613bd0
wrinkled2017-01-11d01t05.flac:2e0a5ed51cd11d836fb3b8713f25bb08
wrinkled2017-01-11d01t06.flac:d9cb58373848418e6c1e1390fdd85b2b
wrinkled2017-01-11d01t07.flac:1e65c8512eb1fa7a135ebbbdf1f5fa2f
wrinkled2017-01-11d01t08.flac:95c8aae555440a2f4c08d7bec0978f5b
wrinkled2017-01-11d02t01.flac:7c4cac199ea4176b046df3434f55dfb5
wrinkled2017-01-11d02t02.flac:d9b97c454a1270a7c39bccc11c22a2be
wrinkled2017-01-11d02t03.flac:aa341fc5a4b1309adba04bdf1a4d33c3
wrinkled2017-01-11d02t04.flac:8e4e4b078ac95acaba24190ea757e480
wrinkled2017-01-11d02t05.flac:1ba2fb895c0ab15d778f155ac85048c4
wrinkled2017-01-11d02t06.flac:15b278fc33397ee289f574b1e02c536e
wrinkled2017-01-11d02t07.flac:4e80e17d2d110b2bcfe8b6a487e971a0
wrinkled2017-01-11d02t08.flac:bd01cc8b605007c442635ab23a418cc2
wrinkled2017-01-11d02t09.flac:343d6942cffd7ba1d759a2aeaf609d61
wrinkled2017-01-11d02t10.flac:3008ec8672b052d26ea16ae65d9c694f

 length     expanded size    cdr  WAVE problems  fmt   ratio  filename
     3:55.31       41526956 B   ---   --   ---xx   flac  0.4979  wrinkled2017-01-11d01t01.flac
     5:06.09       53999612 B   ---   --   ---xx   flac  0.4765  wrinkled2017-01-11d01t02.flac
     4:12.25       44511644 B   ---   --   ---xx   flac  0.4547  wrinkled2017-01-11d01t03.flac
     4:06.55       43523804 B   ---   --   ---xx   flac  0.4985  wrinkled2017-01-11d01t04.flac
     5:39.14       59832572 B   ---   --   ---xx   flac  0.4550  wrinkled2017-01-11d01t05.flac
     5:35.36       59178716 B   ---   --   ---xx   flac  0.5634  wrinkled2017-01-11d01t06.flac
     7:39.23       81021740 B   ---   --   ---xx   flac  0.4569  wrinkled2017-01-11d01t07.flac
     4:00.33       42413660 B   ---   --   ---xx   flac  0.5026  wrinkled2017-01-11d01t08.flac
     4:58.45       52673084 B   ---   --   ---xx   flac  0.4547  wrinkled2017-01-11d02t01.flac
     4:54.56       51993356 B   ---   --   ---xx   flac  0.5114  wrinkled2017-01-11d02t02.flac
     4:57.30       52461404 B   ---   --   ---xx   flac  0.4515  wrinkled2017-01-11d02t03.flac
     4:07.16       43608476 B   ---   --   ---xx   flac  0.5360  wrinkled2017-01-11d02t04.flac
     4:12.31       44525756 B   ---   --   ---xx   flac  0.5136  wrinkled2017-01-11d02t05.flac
     3:59.34       42239612 B   ---   --   ---xx   flac  0.5400  wrinkled2017-01-11d02t06.flac
     4:12.72       44622188 B   ---   --   ---xx   flac  0.4570  wrinkled2017-01-11d02t07.flac
     0:25.71        4577036 B   ---   --   ---xx   flac  0.3148  wrinkled2017-01-11d02t08.flac
     4:42.29       49813052 B   ---   --   ---xx   flac  0.4946  wrinkled2017-01-11d02t09.flac
     5:06.60       54119564 B   ---   --   ---xx   flac  0.4921  wrinkled2017-01-11d02t10.flac
    81:52.70      866642232 B                            0.4888  (18 files)

















More information about the bittorrent mailing list