[bittorrent] gd1991-06-17.137545.sbd.miller.flac24

Automated Mailer noreply-bt.e at etree.org
Thu Jan 12 03:07:32 UTC 2017


Band:           Grateful Dead
Torrent Name:   gd1991-06-17.137545.sbd.miller.flac24
Uploaded by:    greendude
DB Link:        
Details:        http://bt.etree.org/details.php?id=590762

Contact the seeder at http://db.etree.org/greendude

If the link to this show does not work, it was probably removed for
being non-trade-friendly.

Description / text file:
-------------------------
Grateful Dead - June 17, 1991
Giants Stadium - East Rutherford, NJ

Recording Info:
SBD > Cassette Master (TDK SA-X100)

Transfer Info:
Cassette Master (Nakamichi DR-1) > Tascam DA-3000 (DSF 1-bit/5.8 MHz) >
KORG AudioGate 4 > Adobe Audition CC 2015 > Samplitude Pro X3 Suite > FLAC/24
(1 Disc FLAC)

All Transfers and Mastering By Charlie Miller
charliemiller87 at earthlink.net
January 11, 2017

Notes:
-- Two sets of masters were used to make show complete

Set 1:
01 - Eyes Of The World >
02 - Walking Blues
03 - Brown Eyed Women
04 - Dark Star Jam >
05 - When I Paint My Masterpiece
06 - Loose Lucy
07 - Cassidy >
08 - Might As Well

Set 2:
09 - Saint Of Circumstance >
10 - Ship Of Fools >
11 - Dark Star Jam >
12 - Truckin' >
13 - New Speedway Boogie >
14 - Uncle John's Band >
15 - Dark Star Jam >
16 - Drums >
17 - Space >
18 - China Doll >
19 - Playing In The Band >
20 - Dark Star Jam >
21 - Sugar Magnolia

Encore:
22 - The Weight


SHNTOOL OUTPUT:
    length     expanded size    cdr  WAVE problems  fmt   ratio  filename
    15:43.061     543203258 B   cxx   --   ---xx   flac  0.6619  01 Eyes Of The World.flac
     6:55.760     239477924 B   cxx   --   ---xx   flac  0.6588  02 Walkin' Blues.flac
     6:04.301     209837138 B   cxx   --   ---xx   flac  0.6770  03 Brown Eyed Women.flac
     1:31.396      52644212 B   cxx   --   ---xx   flac  0.6409  04 Dark Star Jam.flac
     6:20.987     219448466 B   cxx   --   ---xx   flac  0.6584  05 When I Paint My Masterpiece.flac
     8:09.392     281889746 B   cxx   --   ---xx   flac  0.6711  06 Loose Lucy.flac
     7:04.925     244756682 B   cxx   --   ---xx   flac  0.6788  07 Cassidy.flac
     6:17.336     217345772 B   cxx   --   ---xx   flac  0.6854  08 Might As Well.flac
     9:15.242     319819484 B   cxx   --   ---xx   flac  0.6738  09 Saint Of Circumstance.flac
     7:51.763     271735448 B   cxx   --   ---xx   flac  0.6658  10 Ship Of Fools.flac
     1:15.958      43751954 B   cxx   --   ---xx   flac  0.6515  11 Dark Star Jam.flac
     6:49.469     235854092 B   cxx   --   ---xx   flac  0.6802  12 Truckin'.flac
    10:06.851     349546436 B   cxx   --   ---xx   flac  0.6682  13 New Speedway Boogie.flac
    13:13.508     457060658 B   cxx   --   ---xx   flac  0.6684  14 Uncle John's Band.flac
     6:44.766     233145170 B   cxx   --   ---xx   flac  0.6621  15 Dark Star Jam.flac
    11:07.432     384440636 B   cxx   --   ---xx   flac  0.6265  16 Drums.flac
     8:21.123     288646868 B   cxx   --   ---xx   flac  0.6417  17 Space.flac
     5:10.321     178744874 B   cxx   --   ---xx   flac  0.6553  18 China Doll.flac
     4:15.018     146890196 B   cxx   --   ---xx   flac  0.6676  19 Playing In The Band.flac
     0:16.381       9435470 B   cxx   --   ---xx   flac  0.6229  20 Dark Star Jam.flac
     9:14.848     319592540 B   cxx   --   ---xx   flac  0.6748  21 Sugar Magnolia.flac
     5:56.445     205312154 B   cxx   --   ---xx   flac  0.6653  22 The Weight.flac
   157:46.282    5452579178 B                            0.6639  (22 files)




More information about the bittorrent mailing list