[bittorrent] gd1987-09-18.137533.sbd.miller.flac24

Automated Mailer noreply-bt.e at etree.org
Wed Jan 11 23:07:13 UTC 2017


Band:           Grateful Dead
Torrent Name:   gd1987-09-18.137533.sbd.miller.flac24
Uploaded by:    greendude
DB Link:        
Details:        http://bt.etree.org/details.php?id=590758

Contact the seeder at http://db.etree.org/greendude

If the link to this show does not work, it was probably removed for
being non-trade-friendly.

Description / text file:
-------------------------
Grateful Dead - September 18, 1987
Madison Square Garden - New York, NY

Recording Info:
SBD > Cassette Master (TDK SA-X90)

Transfer Info:
Cassette Master (Nakamichi DR-1) > Tascam DA-3000 (DSF 1-bit/5.8 MHz) >
KORG AudioGate 4 > Adobe Audition CC 2015 > Samplitude Pro X3 Suite > FLAC/24
(1 Disc FLAC)

All Transfers and Mastering By Charlie Miller
charliemiller87 at earthlink.net
January 10, 2017

Notes:
-- Two sets of masters were used to make show complete
-- Thanks to Joe B. Jones for his help with the pitch correction

Set 1:
01 - Tuning
02 - Hell In A Bucket >
03 - Sugaree >
04 - Walkin' Blues
05 - Candyman >
06 - When I Paint My Masterpiece
07 - Bird Song

Set 2:
08 - Tuning
09 - Shakedown Street >
10 - Man Smart, Woman Smarter >
11 - Terrapin Station >
12 - Drums >
13 - Space >
14 - Goin' Down The Road Feeling Bad >
15 - All Along The Watchtower >
16 - Morning Dew >
17 - Good Lovin' >
18 - La Bamba >
19 - Good Lovin'

Encore:
20 - Knockin' On Heaven's Door


SHNTOOL OUTPUT:
    length     expanded size    cdr  WAVE problems  fmt   ratio  filename
     2:34.858      89198024 B   cxx   --   ---xx   flac  0.6510  01 Tuning.flac
     6:15.966     216556610 B   cxx   --   ---xx   flac  0.6766  02 Hell In A Bucket.flac
    10:36.651     366711152 B   cxx   --   ---xx   flac  0.6713  03 Sugaree.flac
     7:21.984     254582990 B   cxx   --   ---xx   flac  0.6680  04 Walkin' Blues.flac
     6:53.280     238049510 B   cxx   --   ---xx   flac  0.6603  05 Candyman.flac
     5:24.653     187000220 B   cxx   --   ---xx   flac  0.6690  06 When I Paint My Masterpiece.flac
    10:16.168     354912926 B   cxx   --   ---xx   flac  0.6743  07 Bird Song.flac
     1:06.809      38482130 B   cxx   --   ---xx   flac  0.6477  08 Tuning.flac
    12:20.997     426814178 B   cxx   --   ---xx   flac  0.6747  09 Shakedown Street.flac
     7:12.378     249049766 B   cxx   --   ---xx   flac  0.6798  10 Man Smart, Woman Smarter.flac
    13:32.740     468138356 B   cxx   --   ---xx   flac  0.6703  11 Terrapin Station.flac
     8:37.972     298351796 B   cxx   --   ---xx   flac  0.6565  12 Drums.flac
     7:51.326     271483634 B   cxx   --   ---xx   flac  0.6402  13 Space.flac
     6:10.052     213150224 B   cxx   --   ---xx   flac  0.6775  14 Goin' Down The Road Feeling Bad.flac
     4:54.154     169432496 B   cxx   --   ---xx   flac  0.6813  15 All Along The Watchtower.flac
    11:16.785     389828366 B   cxx   --   ---xx   flac  0.6711  16 Morning Dew.flac
     4:19.955     149733902 B   cxx   --   ---xx   flac  0.6799  17 Good Lovin'.flac
     1:28.051      50717666 B   cxx   --   ---xx   flac  0.6780  18 La Bamba.flac
     3:21.580     116110010 B   cxx   --   ---xx   flac  0.6760  19 Good Lovin'.flac
     8:54.949     308130956 B   cxx   --   ---xx   flac  0.6654  20 Knockin' On Heaven's Door.flac
   140:31.309    4856434912 B                            0.6691  (20 files)




More information about the bittorrent mailing list