[bittorrent] gd1976-09-30.137537.mtx.dusborne.flac16

Automated Mailer noreply-bt.e at etree.org
Wed Jan 11 23:03:29 UTC 2017


Band:           Grateful Dead
Torrent Name:   gd1976-09-30.137537.mtx.dusborne.flac16
Uploaded by:    greendude
DB Link:        
Details:        http://bt.etree.org/details.php?id=590757

Contact the seeder at http://db.etree.org/greendude

If the link to this show does not work, it was probably removed for
being non-trade-friendly.

Description / text file:
-------------------------
Grateful Dead
September 30, 1976 
Mershon Auditorium
Ohio State University 
Columbus, OH

3 Source Matrix

Soundboard (shnid:030225+018107)
--------------------------------------------------------------------------------
gd76-09-30.030225+018107.sbd-combined.cribbs-miller.t-flac16

This a combined version of both shnids: 18107 & 30225. 
The combination provides for a complete show.
Both sources have been flac encoded and tagged.

Disc 1 & 3 lineage: (30225)
SBD > MR > DAT > CD > EAC > SHN
Special thanks to Andy Lemieux for the source discs, and any other 
unnamed parties who may have contributed to this being available.
Sean Cribbs 7/2005

Disc 2 Lineage: (18107)
SBD > Rm > Dat > Sonic Solutions>CD > EAC > SHN
Conversion By Charlie Miller
charliemiller87 at earthlink.net
6/12/03

Disc 1 Edits:
1. First 6 seconds of D1T01 patched with audience source.
2. Weir's vocals bleed at 0:22 into D1T01; reduced levels 3dB.
3. Patched 1-second dropout in mix at 5:47 of D1T01.
4. First 3 seconds of D1T04 patched with audience source.
5. First 35 seconds of D1T06 patched with audeince source

Disc 3 Edits:
1. The left channel levels drop significantly from 2:28 of D3T02 to 
   5:50 of D3T03.  I did not edit this in any way.
2. 2 minutes patched with audience source from 3:35 of D3T05 to 0:29 
   of D3T06.
3. Last 4:56 of D3T10, starting at 9:40, patched with audience source.

Sean Cribbs 7/2005

Flac encoding notes:
All processing with Trader's Little Helper
Shn - st5 generated
Shn > Flac ( level 8 )
Flac - st5 generated and matched to Shn st5
B. Proctor 4-6-08

Audience (shnid:11939)
-------------------------------------------------------------------------------
gd76-09-30.fob-patched.unknown.11939.sbeok.shnf

FOB - AUD master cass > Cass > DAT > CD > EAC > SHN

Scarlet from: SBD master reel > PCM > cass > CD > EAC > .SHN 
Looks Like Rain cuts in shortly before the "I only want to hold you" verse.
Around n' Round cuts in with the first "'til the moon went down". 
-----------------------------------------------------------------------------
---Thank you Charlie Miller for your work on the SBD.
---Thank you Sean Cribbs for your work on the SBD.
---Thank you Jonathan Miller and Dave Backus for providing the AUD source.
---Thank you XJ32 for the art work.
---Thank you Germain for your advice, encouragement, guidance and seeding.

Matrix by dusborne

12-12-2016
------------------------------------------------------------------------------
Set 1

101 - gd76-09-30s1t01 - The Music Never Stopped
102 - gd76-09-30s1t02 - Sugaree
103 - gd76-09-30s1t03 - New Minglewood Blues
104 - gd76-09-30s1t04 - Ramble On Rose
105 - gd76-09-30s1t05 - Looks Like Rain
106 - gd76-09-30s1t06 - Peggy-O
107 - gd76-09-30s1t07 - El Paso
108 - gd76-09-30s1t08 - Crazy Fingers ->
109 - gd76-09-30s1t09 - It's All Over Now
110 - gd76-09-30s1t10 - Scarlet Begonias *(SBD only)

Set 2

201 - gd76-09-30s2t01 - Tuning 
202 - gd76-09-30s2t02 - Lazy Lightning ->
203 - gd76-09-30s2t03 - Supplication
204 - gd76-09-30s2t04 - It Must Have Been the Roses
205 - gd76-09-30s2t05 - Samson & Delilah
206 - gd76-09-30s2t06 - Saint Stephen ->
207 - gd76-09-30s2t07 - Jam ->
208 - gd76-09-30s2t08 - Not Fade Away ->
209 - gd76-09-30s2t09 - Drums ->
210 - gd76-09-30s2t10 - Wharf Rat ->
211 - gd76-09-30s2t11 - Not Fade Away ->
212 - gd76-09-30s2t12 - Saint Stephen ->
213 - gd76-09-30s2t13 - Around & Around
214 - gd76-09-30s2t14 - Morning Dew **(MTX->AUD)
---------------------------------------------------------------------------------

Tagging notes:
Show information is embedded within the header
of each flac file. It will display on any player 
capable of directly playing flac files. 
If converted to wav during processing, all tags 
will be stripped, however audio data will remain 
unaffected. If you must transcode to a lossy format, 
do so directly Flac > Lossy.
Use st5 to validate audio integrity.
Md5 values will change if tagging is altered.

Dave Usborne 12-12-2016
-------------------------------------------------------------------------------
length     expanded size    cdr  WAVE problems  fmt   ratio  filename
     6:30.29       68864252 B   ---   --   ---xx   flac  0.5622  gd76-09-30s1t01.flac
    10:44.42      113700428 B   ---   --   ---xx   flac  0.5674  gd76-09-30s1t02.flac
     4:58.69       52729532 B   ---   --   ---xx   flac  0.5714  gd76-09-30s1t03.flac
     7:44.17       81889628 B   ---   --   ---xx   flac  0.5617  gd76-09-30s1t04.flac
     8:20.20       88247084 B   ---   --   ---xx   flac  0.5460  gd76-09-30s1t05.flac
     9:04.24       96018092 B   ---   --   ---xx   flac  0.5616  gd76-09-30s1t06.flac
     4:58.41       52663676 B   ---   --   ---xx   flac  0.5756  gd76-09-30s1t07.flac
    15:36.37      165197468 B   ---   --   ---xx   flac  0.5658  gd76-09-30s1t08.flac
     5:46.70       61199084 B   ---   --   ---xx   flac  0.5318  gd76-09-30s1t09.flac
    10:51.50      114954044 B   ---   --   ---xx   flac  0.5366  gd76-09-30s1t10.flac
     1:15.41       13326476 B   ---   --   ---xx   flac  0.5483  gd76-09-30s2t01.flac
     3:21.04       35465852 B   ---   --   ---xx   flac  0.5883  gd76-09-30s2t02.flac
     5:05.52       53924348 B   ---   --   ---xx   flac  0.5874  gd76-09-30s2t03.flac
     7:23.28       78211100 B   ---   --   ---xx   flac  0.5736  gd76-09-30s2t04.flac
     8:34.35       90751964 B   ---   --   ---xx   flac  0.5801  gd76-09-30s2t05.flac
     4:39.47       49326188 B   ---   --   ---xx   flac  0.5764  gd76-09-30s2t06.flac
     5:51.39       62008172 B   ---   --   ---xx   flac  0.5782  gd76-09-30s2t07.flac
     8:13.50       87082844 B   ---   --   ---xx   flac  0.5839  gd76-09-30s2t08.flac
     5:33.53       58865900 B   ---   --   ---xx   flac  0.5762  gd76-09-30s2t09.flac
    10:51.64      114986972 B   ---   --   ---xx   flac  0.5657  gd76-09-30s2t10.flac
     3:32.56       37528556 B   ---   --   ---xx   flac  0.5843  gd76-09-30s2t11.flac
     0:58.68       10391180 B   ---   --   ---xx   flac  0.5842  gd76-09-30s2t12.flac
     8:04.08       85396460 B   ---   --   ---xx   flac  0.5905  gd76-09-30s2t13.flac
    14:34.14      154206572 B   ---   --   ---xx   flac  0.5910  gd76-09-30s2t14.flac
   172:36.58     1826935872 B                            0.5695  (24 files)



More information about the bittorrent mailing list