[bittorrent] Joe Grandsden's Jazz Jam Venkman's Atlanta, Georgia 1/10/2017 (Schoeps CCM4V'S FOB)

Automated Mailer noreply-bt.e at etree.org
Wed Jan 11 06:56:13 UTC 2017


Band:           Other
Torrent Name:   Joe Grandsden's Jazz Jam Venkman's Atlanta, Georgia 1/10/2017 (Schoeps CCM4V'S FOB)
Uploaded by:    zmanatl
DB Link:        
Details:        http://bt.etree.org/details.php?id=590748

Contact the seeder at http://db.etree.org/zmanatl

If the link to this show does not work, it was probably removed for
being non-trade-friendly.

Description / text file:
-------------------------
Joe Grandsden's Jazz Jam
Venkman's
Atlanta, Georgia
1/10/2017

Source: Schoeps CCM4V's>Lunatec V2>Benchmark AD2K>
Sound Devices 722 (24/44)
FOB/DFC/KFC/ZFC/AARP 18' From Stage, 8' High
DSP: Sound Devices 722>Sound Forge 10.0>CD Wave>flac(16)
ID3 Tagged In Foobar 2000
Recorded By: Z-Man
Seeded By: Z-Man

Disc I 

01 ?
02 ?
03 ?
04 I Love You
05 ?
06 There'll Never Be Another You

Disc II 

01 ?
02 ?
03 Happy Birthday Blair
04 Route 66
05 Happy Birthday Kevin
06 What Not For Me
07 Blues Walk
08 Sweet Georgia Brown  

Disc III 

01 We're Just Friends
02 Close Your Eyes
03 Satin Doll
04 Sunrise
05 The Theme

joe2017-01-10d01t01.flac:43684efa159c61e6dca10e52f18597d6
joe2017-01-10d01t02.flac:f50ad7fae096894666477efbbc0d7350
joe2017-01-10d01t03.flac:2400d375881f0d2ded0a39bf19c60565
joe2017-01-10d01t04.flac:36b373d4b397de541276e3bf057190cb
joe2017-01-10d01t05.flac:53a304480a943dc737592db944d1b106
joe2017-01-10d01t06.flac:59a4d572370b154039d4a4335575d903
joe2017-01-10d02t01.flac:6a334045cdfd4e99694e812f1a709f32
joe2017-01-10d02t02.flac:3143a016278e7cc0e753df12e29bb8a9
joe2017-01-10d02t03.flac:229908832cc0638c5c1c5d1cdcacf4f2
joe2017-01-10d02t04.flac:a07deee4411820e5c27d91105adb86f6
joe2017-01-10d02t05.flac:e69108369306ed8f51999fc3e8c90b00
joe2017-01-10d02t06.flac:20eaf908cddb4ea483b652ad22f4c30f
joe2017-01-10d02t07.flac:4cdec65dbbfc40fa348bad4ee1654c31
joe2017-01-10d02t08.flac:859ac07256be77b00d70f779b9213844
joe2017-01-10d03t01.flac:b269fb100793cdc65d606c14f09e818e
joe2017-01-10d03t02.flac:e3f53ad8a7244be3714e5dfbef9f5a4d
joe2017-01-10d03t03.flac:96f298f2704c5ec4ed5c59a663db6a9d
joe2017-01-10d03t04.flac:b8726297ea193e7b312b24460cf59e46
joe2017-01-10d03t05.flac:559c87f77ea7c34f292e268d66a10351
 
length     expanded size    cdr  WAVE problems  fmt   ratio  filename
     9:26.23       99896540 B   ---   --   ---xx   flac  0.5376  joe2017-01-10d01t01.flac
    12:36.26      133419596 B   ---   --   ---xx   flac  0.5615  joe2017-01-10d01t02.flac
     9:10.23       97074140 B   ---   --   ---xx   flac  0.4398  joe2017-01-10d01t03.flac
    11:56.31      126375356 B   ---   --   ---xx   flac  0.5253  joe2017-01-10d01t04.flac
     5:44.46       60789836 B   ---   --   ---xx   flac  0.4908  joe2017-01-10d01t05.flac
    10:02.37      106279868 B   ---   --   ---xx   flac  0.5364  joe2017-01-10d01t06.flac
     9:56.70      105299084 B   ---   --   ---xx   flac  0.4785  joe2017-01-10d02t01.flac
     9:38.64      102109772 B   ---   --   ---xx   flac  0.5614  joe2017-01-10d02t02.flac
     1:52.62       19902668 B   ---   --   ---xx   flac  0.3962  joe2017-01-10d02t03.flac
     5:49.55       61693004 B   ---   --   ---xx   flac  0.5259  joe2017-01-10d02t04.flac
     2:05.00       22050044 B   ---   --   ---xx   flac  0.4731  joe2017-01-10d02t05.flac
    11:14.53      119018300 B   ---   --   ---xx   flac  0.5135  joe2017-01-10d02t06.flac
     9:45.31      103266956 B   ---   --   ---xx   flac  0.5709  joe2017-01-10d02t07.flac
    10:17.46      108947036 B   ---   --   ---xx   flac  0.5582  joe2017-01-10d02t08.flac
     7:37.65       80767724 B   ---   --   ---xx   flac  0.4737  joe2017-01-10d03t01.flac
     5:29.13       58066220 B   ---   --   ---xx   flac  0.5226  joe2017-01-10d03t02.flac
     5:55.12       62650268 B   ---   --   ---xx   flac  0.4311  joe2017-01-10d03t03.flac
    16:03.50      169990844 B   ---   --   ---xx   flac  0.5603  joe2017-01-10d03t04.flac
    14:52.16      157386476 B   ---   --   ---xx   flac  0.5629  joe2017-01-10d03t05.flac
   169:35.48     1794983732 B                            0.5255  (19 files)















More information about the bittorrent mailing list