[bittorrent] gd1987-09-18.137535.sbd.miller.flac16

Automated Mailer noreply-bt.e at etree.org
Wed Jan 11 06:38:05 UTC 2017


Band:           Grateful Dead
Torrent Name:   gd1987-09-18.137535.sbd.miller.flac16
Uploaded by:    norm
DB Link:        
Details:        http://bt.etree.org/details.php?id=590747

Contact the seeder at http://db.etree.org/norm

If the link to this show does not work, it was probably removed for
being non-trade-friendly.

Description / text file:
-------------------------
Grateful Dead - September 18, 1987
Madison Square Garden - New York, NY

Recording Info:
SBD > Cassette Master (TDK SA-X90)

Transfer Info:
Cassette Master (Nakamichi DR-1) > Tascam DA-3000 (DSF 1-bit/5.8 MHz) >
KORG AudioGate 4 > Adobe Audition CC 2015 > Samplitude Pro X3 Suite > FLAC/24
(1 Disc FLAC)

All Transfers and Mastering By Charlie Miller
charliemiller87 at earthlink.net
January 10, 2017

Notes:
-- Two sets of masters were used to make show complete
-- Thanks to Joe B. Jones for his help with the pitch correction

24bit > 16bit with r8brain

Set 1:
01 - Tuning
02 - Hell In A Bucket >
03 - Sugaree >
04 - Walkin' Blues
05 - Candyman >
06 - When I Paint My Masterpiece
07 - Bird Song

Set 2:
08 - Tuning
09 - Shakedown Street >
10 - Man Smart, Woman Smarter >
11 - Terrapin Station >
12 - Drums >
13 - Space >
14 - Goin' Down The Road Feeling Bad >
15 - All Along The Watchtower >
16 - Morning Dew >
17 - Good Lovin' >
18 - La Bamba >
19 - Good Lovin'

Encore:
20 - Knockin' On Heaven's Door


SHNTOOL OUTPUT:
    length     expanded size    cdr  WAVE problems  fmt   ratio  filename
     2:34.64       27316172 B   ---   --   ---xx   flac  0.5489  01 Tuning.flac
     6:15.72       66319388 B   ---   --   ---xx   flac  0.6214  02 Hell In A Bucket.flac
    10:36.49      112305692 B   ---   --   ---xx   flac  0.6068  03 Sugaree.flac
     7:21.74       77966492 B   ---   --   ---xx   flac  0.5984  04 Walkin' Blues.flac
     6:53.21       72902636 B   ---   --   ---xx   flac  0.5923  05 Candyman.flac
     5:24.49       57268892 B   ---   --   ---xx   flac  0.6036  06 When I Paint My Masterpiece.flac
    10:16.14      108695372 B   ---   --   ---xx   flac  0.6132  07 Bird Song.flac
     1:06.60       11783564 B   ---   --   ---xx   flac  0.5379  08 Tuning.flac
    12:21.00      130712444 B   ---   --   ---xx   flac  0.6145  09 Shakedown Street.flac
     7:12.28       76270700 B   ---   --   ---xx   flac  0.6281  10 Man Smart, Woman Smarter.flac
    13:32.56      143368556 B   ---   --   ---xx   flac  0.6015  11 Terrapin Station.flac
     8:37.73       91370540 B   ---   --   ---xx   flac  0.5605  12 Drums.flac
     7:51.24       83140892 B   ---   --   ---xx   flac  0.5127  13 Space.flac
     6:10.04       65277452 B   ---   --   ---xx   flac  0.6177  14 Goin' Down The Road Feeling Bad.flac
     4:54.12       51889868 B   ---   --   ---xx   flac  0.6283  15 All Along The Watchtower.flac
    11:16.58      119382860 B   ---   --   ---xx   flac  0.5973  16 Morning Dew.flac
     4:19.72       45856988 B   ---   --   ---xx   flac  0.6268  17 Good Lovin'.flac
     1:28.04       15532652 B   ---   --   ---xx   flac  0.6221  18 La Bamba.flac
     3:21.43       35557580 B   ---   --   ---xx   flac  0.6166  19 Good Lovin'.flac
     8:54.73       94369340 B   ---   --   ---xx   flac  0.5848  20 Knockin' On Heaven's Door.flac
   140:31.25     1487288080 B                            0.5983  (20 files)




More information about the bittorrent mailing list