[bittorrent] John McKnight And Friends Nik's Place Marietta, Georgia 1/9/2017 (Schoeps CCM4V'S FOB)

Automated Mailer noreply-bt.e at etree.org
Tue Jan 10 18:36:11 UTC 2017


Band:           Other
Torrent Name:   John McKnight And Friends Nik's Place Marietta, Georgia 1/9/2017 (Schoeps CCM4V'S FOB)
Uploaded by:    zmanatl
DB Link:        
Details:        http://bt.etree.org/details.php?id=590735

Contact the seeder at http://db.etree.org/zmanatl

If the link to this show does not work, it was probably removed for
being non-trade-friendly.

Description / text file:
-------------------------
John McKnight, Adam Holiday, Tyler Neal, And Caleb Tokarska
Nik's Place 
Marietta, Georgia
1/9/2017

Source: Schoeps CCM4V's>Lunatec V2>Benchmark AD2K>
Sound Devices 722 (24/44)
FOB/DFC/KFC/ZFC/AARP Stage Lip, 6 1/2' High
DSP: Sound Devices 722>Sound Forge 10.0>CD Wave>flac(16)
ID3 Tagged In Foobar 2000
Recorded By: Z-Man
Seeded By: Z-Man

Disc I 1st Set

01 Cold Drivin'
02 Look-Ka Py Py
03 You're Gonna Miss Me When I'm Gone 
04 Sisters And Brothers
05 Whippin' Post
06 Foots
07 ?

Disc II 2nd Set

01 John Banter
02 Look-Ka Py Py Part II
03 Born Under A Bad Sign 
04 Crazy
05 Tryin' To Love Two Women
06 Hey Pockey Way 
07 ?
08 ?

John McKnight - Drums And Vocals
Adam Holiday - Keyboards
Tyler Neal - Guitar And Vocals 
Caleb Tokarska - Guitar And Vocals

john2017-01-09d01t01.flac:2e2fde636d542800b0d7c52d57a38b4a
john2017-01-09d01t02.flac:32166ec7971b5f08bd412f16abf10a77
john2017-01-09d01t03.flac:367d1d4440730cd5dbf2c3bb32e701c3
john2017-01-09d01t04.flac:e1333b9cff35c95ff5f3b7bc923a1398
john2017-01-09d01t05.flac:a3fbdc945d8a4e1bd4b9e9062328ff9c
john2017-01-09d01t06.flac:3df1b41848fc96592b4ae296b23c8203
john2017-01-09d01t07.flac:ee50f78f63c8d74c94c7b2a8eabf1d53
john2017-01-09d02t01.flac:a296a5caca303b307702396b5b91b5dd
john2017-01-09d02t02.flac:8c96615ef0f6ab54ca85d56bc737906f
john2017-01-09d02t03.flac:ccc39eef5cf9749089c152f045d00eae
john2017-01-09d02t04.flac:76af7d707f7ece320cf7528b3186549f
john2017-01-09d02t05.flac:4d7a1c7d320aef84a25853c1bdfae200
john2017-01-09d02t06.flac:7490e3790ec7722cc5d65bb9184f89a8
john2017-01-09d02t07.flac:f8ba0dbb22e9512d4186313009903efd
john2017-01-09d02t08.flac:0301eafcc80dd7595bc481137843e88b

length     expanded size    cdr  WAVE problems  fmt   ratio  filename
     7:44.57       81983708 B   ---   --   ---xx   flac  0.5081  john2017-01-09d01t01.flac
     7:51.12       83112668 B   ---   --   ---xx   flac  0.5143  john2017-01-09d01t02.flac
     4:42.38       49834220 B   ---   --   ---xx   flac  0.5127  john2017-01-09d01t03.flac
     9:44.31      103090556 B   ---   --   ---xx   flac  0.4422  john2017-01-09d01t04.flac
    13:44.73      145525340 B   ---   --   ---xx   flac  0.4644  john2017-01-09d01t05.flac
     6:05.52       64508348 B   ---   --   ---xx   flac  0.4021  john2017-01-09d01t06.flac
     6:35.47       69788588 B   ---   --   ---xx   flac  0.4418  john2017-01-09d01t07.flac
     0:21.13        3735020 B   ---   --   ---xx   flac  0.3109  john2017-01-09d02t01.flac
     7:31.64       79706972 B   ---   --   ---xx   flac  0.5163  john2017-01-09d02t02.flac
     5:12.58       55173260 B   ---   --   ---xx   flac  0.5440  john2017-01-09d02t03.flac
     7:14.70       76722284 B   ---   --   ---xx   flac  0.5021  john2017-01-09d02t04.flac
     5:13.53       55337900 B   ---   --   ---xx   flac  0.4864  john2017-01-09d02t05.flac
     6:42.56       71044556 B   ---   --   ---xx   flac  0.4929  john2017-01-09d02t06.flac
     9:35.67      101587628 B   ---   --   ---xx   flac  0.4565  john2017-01-09d02t07.flac
     7:02.54       74567852 B   ---   --   ---xx   flac  0.4762  john2017-01-09d02t08.flac
   105:24.70     1115718900 B                            0.4791  (15 files)




















More information about the bittorrent mailing list