[bittorrent] jg1984-11-24.jgjk.mance.wise.sirmick.137528.sbeok.flac16 e

Automated Mailer noreply-bt.e at etree.org
Tue Jan 10 07:08:31 UTC 2017


Band:           Garcia
Torrent Name:   jg1984-11-24.jgjk.mance.wise.sirmick.137528.sbeok.flac16 e
Uploaded by:     SIRMick
DB Link:        
Details:        http://bt.etree.org/details.php?id=590734

Contact the seeder at http://db.etree.org/ SIRMick

If the link to this show does not work, it was probably removed for
being non-trade-friendly.

Description / text file:
-------------------------
Jerry Garcia and John Kahn
Capitol Theater
Passaic, NJ
11/24/1984
Late Show


Source: Audience Recording > AKG CE-1 mics > Uher Cr-240 > master cassette
        Taped by Kenny Mance

Transfer: Master cassette > Uher Cr-240 > Sony PCM p-700 DAT @ 44.1k > Digital Audio Labs Card Deluxe > wav 6/44.1
          Jim Wise

Lineage: wav 16/44.1 > Adobe Audition 3.0.1 > iZotope RX4 Advanced > iZotope Ozone 5 Advanced > CD Wave >
         TLH > Flac16



Set I

01  crowd
02  Deep Elem Blues
03  Friend Of The Devil
04  Dire Wolf
05  When I Paint My Masterpiece
06  Jack-A-Roe
07  Run For The Roses


Set II 

01  crowd
02  Reuben And Cherise
03  Gomorrah
04  Peggy-O
05  Bird Song
06  Goodnight Irene



Thanks to Kenny Mance and Jim Wise


edited and mastered
SIRMick
January 2017


shntool output:

    length     expanded size    cdr  WAVE problems  fmt   ratio  filename
     0:42.12        7437068 B   ---   --   ---xx   flac  0.5135  jgjk1984-11-24s1t01.flac
     9:38.10      101982764 B   ---   --   ---xx   flac  0.5434  jgjk1984-11-24s1t02.flac
     7:46.32       82277708 B   ---   --   ---xx   flac  0.5457  jgjk1984-11-24s1t03.flac
     3:55.26       41515196 B   ---   --   ---xx   flac  0.5789  jgjk1984-11-24s1t04.flac
     8:36.03       91029500 B   ---   --   ---xx   flac  0.5548  jgjk1984-11-24s1t05.flac
     4:49.17       51019628 B   ---   --   ---xx   flac  0.5477  jgjk1984-11-24s1t06.flac
     4:35.05       48521804 B   ---   --   ---xx   flac  0.5840  jgjk1984-11-24s1t07.flac
     0:47.41        8387276 B   ---   --   ---xx   flac  0.5301  jgjk1984-11-24s2t01.flac
     7:23.68       78305180 B   ---   --   ---xx   flac  0.5837  jgjk1984-11-24s2t02.flac
     5:53.42       62368028 B   ---   --   ---xx   flac  0.5365  jgjk1984-11-24s2t03.flac
     7:43.46       81781436 B   ---   --   ---xx   flac  0.5459  jgjk1984-11-24s2t04.flac
    14:14.28      150711500 B   ---   --   ---xx   flac  0.5509  jgjk1984-11-24s2t05.flac
     9:13.55       97678604 B   ---   --   ---xx   flac  0.5501  jgjk1984-11-24s2t06.flac
    85:19.10      903015692 B                            0.5537  (13 files)





More information about the bittorrent mailing list