[bittorrent] jg1977-06-23s1.jgb.realistic.mcclary.miller.sirmick.137527.sbeok.flac16 e

Automated Mailer noreply-bt.e at etree.org
Tue Jan 10 06:59:43 UTC 2017


Band:           Garcia
Torrent Name:   jg1977-06-23s1.jgb.realistic.mcclary.miller.sirmick.137527.sbeok.flac16 e
Uploaded by:    grateful darkstar
DB Link:        
Details:        http://bt.etree.org/details.php?id=590733

Contact the seeder at http://db.etree.org/grateful darkstar

If the link to this show does not work, it was probably removed for
being non-trade-friendly.

Description / text file:
-------------------------
Jerry Garcia Band
Santa Rosa High School
Santa Rosa, CA
June 23, 1977
Set I

Source: Audience > Realistic stereo electret condenser mic > Aiwa portable recorder > master cassette > cdr > eac >wav 16/44.1
        taped by Dave McClary and extracted by Charlie Miller
Lineage: wav 16/44.1 > Adobe Audition 3.0.1 > iZotope RX4 Advanced > iZotope Ozone 5 Advanced > CD Wave > TLH > Flac16



SET I

01   Sugaree
02   //Catfish John
03   //Stir It Up
04   Mystery Train
05   Sitting Here In Limbo
06   The Way You Do The Things You Do




Jerry Garcia - guitar, Vocals
John Kahn - bass
Greg Errico - drums
Keith Godchaux - keyboards
Donna Jean Godchaux - backing vocals


Comments:

- Benefit Concert For The Survival Of The Forest Of Camp Meeker 
- Opened for Maria Muldaur


Notes:

- DC offset removed and azimuth adjustsment made.
- pitch adjustment has been made
- The tape was degraded in places which caused a significant number of small dropouts to occur.
  I have been able to repair the majority of them.  It still sounds a little rough around
  the edges but this is the first time that a source for this set has circulated, so it's nice to have.
- "Catfish John" and "Stir It Up" both fade in, very little is missing.



Thanks to Dave McClary and Charlie Miller


edited and mastered
SIRMick
January 2017


shntool output:

    length     expanded size    cdr  WAVE problems  fmt   ratio  filename
     0:01.01         178796 B   --s   --   ---xx   flac  0.2994  jgb1977-06-23t01.flac
    12:18.15      130218524 B   ---   --   ---xx   flac  0.4248  jgb1977-06-23t02.flac
     9:34.01      101255996 B   ---   --   ---xx   flac  0.4282  jgb1977-06-23t03.flac
    11:58.05      126667004 B   ---   --   ---xx   flac  0.4193  jgb1977-06-23t04.flac
     9:36.58      101742860 B   ---   --   ---xx   flac  0.4672  jgb1977-06-23t05.flac
    12:36.13      133389020 B   ---   --   ---xx   flac  0.4493  jgb1977-06-23t06.flac
    10:23.71      110064236 B   ---   --   ---xx   flac  0.4671  jgb1977-06-23t07.flac
    66:28.14      703516436 B                            0.4417  (7 files)





More information about the bittorrent mailing list