[bittorrent] Matt Anderson Terminal West Atlanta, Georgia 1/7/2017 (Schoeps CCM4V'S FOB)

Automated Mailer noreply-bt.e at etree.org
Mon Jan 9 20:04:14 UTC 2017


Band:           Other
Torrent Name:   Matt Anderson Terminal West Atlanta, Georgia 1/7/2017 (Schoeps CCM4V'S FOB)
Uploaded by:    zmanatl
DB Link:        
Details:        http://bt.etree.org/details.php?id=590729

Contact the seeder at http://db.etree.org/zmanatl

If the link to this show does not work, it was probably removed for
being non-trade-friendly.

Description / text file:
-------------------------
Matt Anderson
Terminal West
Atlanta, Georgia
1/7/2017

Source: Schoeps CCM4V's>Lunatec V2>Benchmark AD2K>
Sound Devices 722 (24/44)
FOB/DFC/KFC/ZFC/AARP Clamped To The Rail Of The Balcony
DSP: Sound Devices 722>Sound Forge 10.0>CD Wave>flac(16)
ID3 Tagged In Foobar 2000
Recorded By: Z-Man
Seeded By: Z-Man

Disc I 

01 Greeting
02 Make You Stay
03 I Lost My Way
04 Wake Up In The Morning
05 Quiet Company
06 So Gone Now
07 Honest Man
08 Broken String Banter
09 Devil's Bride

* I'll be the first to tell you how rude the crowd is. NON-STOP YAPPING! 
I am still uploading for archival purposes. Sikening how rude this crowd was.
 
matt2017-01-07d01t01.flac:fe348c2e4437e10d59c4ccd6daed5604
matt2017-01-07d01t02.flac:baff2c6abb1860faab2dbbabee9d8afd
matt2017-01-07d01t03.flac:24ce9171e98b8bd5610c7e02208bc72a
matt2017-01-07d01t04.flac:981d5e28419d516e640f0e5ccb4a6bc3
matt2017-01-07d01t05.flac:80dbd96d61ce024296f3f577cf3c6d95
matt2017-01-07d01t06.flac:1779a2fbc4a3d6cd1ee2140ac8c6505f
matt2017-01-07d01t07.flac:f1217e3b3d89eb6837531728449bc9fa
matt2017-01-07d01t08.flac:c40c695b7ccc720bf62eefca6a8c0042
matt2017-01-07d01t09.flac:fdb37cc04954f606548f4ce0bd566cfa

 length     expanded size    cdr  WAVE problems  fmt   ratio  filename
     0:29.63        5263820 B   ---   --   ---xx   flac  0.4240  matt2017-01-07d01t01.flac
     4:28.48       47388140 B   ---   --   ---xx   flac  0.5712  matt2017-01-07d01t02.flac
     3:27.15       36550124 B   ---   --   ---xx   flac  0.5453  matt2017-01-07d01t03.flac
     6:20.55       67161404 B   ---   --   ---xx   flac  0.5143  matt2017-01-07d01t04.flac
     4:28.15       47310524 B   ---   --   ---xx   flac  0.4743  matt2017-01-07d01t05.flac
     7:00.56       74219756 B   ---   --   ---xx   flac  0.5035  matt2017-01-07d01t06.flac
     3:26.57       36472508 B   ---   --   ---xx   flac  0.5742  matt2017-01-07d01t07.flac
     3:55.44       41557532 B   ---   --   ---xx   flac  0.4460  matt2017-01-07d01t08.flac
     7:57.51       84262796 B   ---   --   ---xx   flac  0.5332  matt2017-01-07d01t09.flac
    41:35.29      440186604 B                            0.5180  (9 files)










More information about the bittorrent mailing list