[bittorrent] Matisyahu City Winery Atlanta, Georgia 1/8/2017 (Schoeps CCM4V'S FOB)

Automated Mailer noreply-bt.e at etree.org
Mon Jan 9 06:03:13 UTC 2017


Band:           Matisyahu
Torrent Name:   Matisyahu City Winery Atlanta, Georgia 1/8/2017 (Schoeps CCM4V'S FOB)
Uploaded by:    zmanatl
DB Link:        
Details:        http://bt.etree.org/details.php?id=590726

Contact the seeder at http://db.etree.org/zmanatl

If the link to this show does not work, it was probably removed for
being non-trade-friendly.

Description / text file:
-------------------------
Matisyahu 
City Winery
Atlanta, Georgia
1/8/2017

Source: Schoeps CCM4V's>Lunatec V2>Benchmark AD2K>
Sound Devices 722 (24/44)
FOB/DFC/KFC/ZFC/AARP 34' From Stage, 8' High
DSP: Sound Devices 722>Sound Forge 10.0>CD Wave>flac(16)
ID3 Tagged In Foobar 2000
Recorded By: Z-Man
Seeded By: Z-Man

Disc I 1st Set

01 Venue Announcement
02 Kim Goodfriend Of JCC Dunwoody
03 Lord Raise Me Up
04 Indestructable
05 Black Heart
06 Thunder
07 Time Of Your Song
08 Surrender
09 I Watch The Walls Melt Down > Aish Tamid 

Disc II 2nd Set

01 Close My Eyes
02 I Will Be Light
03 Sunshine
04 Banter
05 Jerudalem 
06 King Without A Crown 
Encore:
07 Banter
08 One Day >
09 Prince Caspian >
10 One Day
11 No Woman, No Cry 
12 Thanks/Outro

Matisyahu - Vocals
Aaron - Guitars 

matisyahu2017-01-08d01t01.flac:3c0b8b16c7a4a8ff04ba58c517d975a5
matisyahu2017-01-08d01t02.flac:39bf42563f395601d5647b0a1186fe29
matisyahu2017-01-08d01t03.flac:6ef4fc5e4b84f490a2e8cf183c19dce7
matisyahu2017-01-08d01t04.flac:d06bb74519eef69123ab5d4c8cde6e4d
matisyahu2017-01-08d01t05.flac:114c244533f6ee5730632abea3f0c05a
matisyahu2017-01-08d01t06.flac:52c1361fc3316d1545272da9fea248c4
matisyahu2017-01-08d01t07.flac:7388cb7765e51c1a199d6a8d7eb4c9da
matisyahu2017-01-08d01t08.flac:035372e1b403ad49042417fcdc45bb32
matisyahu2017-01-08d01t09.flac:48c964e91e24f2e4785b44fdadd88615
matisyahu2017-01-08d02t01.flac:f287b6629927400459720c629b7b89ee
matisyahu2017-01-08d02t02.flac:6a5e3ece7b4ae2c2307728cdfc8a38eb
matisyahu2017-01-08d02t03.flac:cafdf5d28397f2d48660d8c615bf7f38
matisyahu2017-01-08d02t04.flac:4f9bb6ada67253b1235e5807b1ce32ac
matisyahu2017-01-08d02t05.flac:88e8ae0b2a83c89d4c8fbd907cb9cfce
matisyahu2017-01-08d02t06.flac:4bc7fe74b0437e98961b0dd47009c908
matisyahu2017-01-08d02t07.flac:f6492fa1bfc0effde4e2482a856e47b3
matisyahu2017-01-08d02t08.flac:4f25db4a2d60397ef89bac12ba0c9f90
matisyahu2017-01-08d02t09.flac:6246958325a3f535297d0fc85c0845bf
matisyahu2017-01-08d02t10.flac:8a9715db30ff91b63e62b04ab35709d4
matisyahu2017-01-08d02t11.flac:93ddcbac67d3869a36c6bd679c172c2c
matisyahu2017-01-08d02t12.flac:75c929bcee91aadbcd22b724edc6a9ae
 
length     expanded size    cdr  WAVE problems  fmt   ratio  filename
     0:24.67        4391228 B   ---   --   ---xx   flac  0.3923  matisyahu2017-01-08d01t01.flac
     2:27.32       26006108 B   ---   --   ---xx   flac  0.3429  matisyahu2017-01-08d01t02.flac
     5:58.49       63266492 B   ---   --   ---xx   flac  0.3126  matisyahu2017-01-08d01t03.flac
     6:15.65       66302924 B   ---   --   ---xx   flac  0.3531  matisyahu2017-01-08d01t04.flac
     6:10.41       65364476 B   ---   --   ---xx   flac  0.3114  matisyahu2017-01-08d01t05.flac
     7:59.04       84505052 B   ---   --   ---xx   flac  0.3730  matisyahu2017-01-08d01t06.flac
     4:29.70       47616284 B   ---   --   ---xx   flac  0.3333  matisyahu2017-01-08d01t07.flac
     9:44.41      103114076 B   ---   --   ---xx   flac  0.3340  matisyahu2017-01-08d01t08.flac
    22:53.36      242281916 B   ---   --   ---xx   flac  0.3607  matisyahu2017-01-08d01t09.flac
     5:53.58       62405660 B   ---   --   ---xx   flac  0.3416  matisyahu2017-01-08d02t01.flac
     7:54.70       83778284 B   ---   --   ---xx   flac  0.3468  matisyahu2017-01-08d02t02.flac
    12:29.01      132125996 B   ---   --   ---xx   flac  0.3266  matisyahu2017-01-08d02t03.flac
     6:05.41       64482476 B   ---   --   ---xx   flac  0.2702  matisyahu2017-01-08d02t04.flac
     7:19.47       77550188 B   ---   --   ---xx   flac  0.3698  matisyahu2017-01-08d02t05.flac
     9:44.23      103071740 B   ---   --   ---xx   flac  0.3623  matisyahu2017-01-08d02t06.flac
     0:27.16        4800476 B   ---   --   ---xx   flac  0.3079  matisyahu2017-01-08d02t07.flac
     2:25.31       25650956 B   ---   --   ---xx   flac  0.3608  matisyahu2017-01-08d02t08.flac
     2:30.57       26594108 B   ---   --   ---xx   flac  0.3857  matisyahu2017-01-08d02t09.flac
     2:19.67       24677228 B   ---   --   ---xx   flac  0.3493  matisyahu2017-01-08d02t10.flac
     3:01.40       32022524 B   ---   --   ---xx   flac  0.3315  matisyahu2017-01-08d02t11.flac
     1:22.37       14551868 B   ---   --   ---xx   flac  0.4507  matisyahu2017-01-08d02t12.flac
   127:58.68     1354560060 B                            0.3449  (21 files)














More information about the bittorrent mailing list