[bittorrent] Bonaventure Quartet Venkman's Atlanta, Georgia 1/8/2017 (Schoeps CCM4V'S FOB)

Automated Mailer noreply-bt.e at etree.org
Sun Jan 8 21:37:35 UTC 2017


Band:           Other
Torrent Name:   Bonaventure Quartet Venkman's Atlanta, Georgia 1/8/2017 (Schoeps CCM4V'S FOB)
Uploaded by:    zmanatl
DB Link:        
Details:        http://bt.etree.org/details.php?id=590720

Contact the seeder at http://db.etree.org/zmanatl

If the link to this show does not work, it was probably removed for
being non-trade-friendly.

Description / text file:
-------------------------
Bonaventure Quartet
Venkman's
Atlanta, Georgia
1/8/2017

Source: Schoeps CCM4V's>Lunatec V2>Benchmark AD2K>
Sound Devices 722 (24/44)
FOB/DFC/KFC/ZFC/AARP 18' From Stage, 7' High
DSP: Sound Devices 722>Sound Forge 10.0>CD Wave>flac(16)
ID3 Tagged In Foobar 2000
Recorded By: Z-Man
Seeded By: Z-Man

Disc I 1st Set

01 Bosa Dorado 
02 Stompin'
03 ?
04 Lullabye ?
05 ?
06 Sweet Georgia Brown
07 ? 

Disc II 2nd Set

01 Sunny Side Of The Street
02 ?
03 Swing 49 
04 ?
05 What Is This Thing Called Love
06 ?
07 La Partida
08 ?
09 ?

Charles Williams - Acoustic Guitar 
Dan Coy – Acoustic Guitar
Mike Beshara – Upright Bass

Performance Was With Dan Using His New Finnish Guitar.

bonaventure2017-01-08d01t01.flac:2fdafd769399d1c9466c03d5f5d1656b
bonaventure2017-01-08d01t02.flac:633f27d13eb95e74fd0a456af0be5eaa
bonaventure2017-01-08d01t03.flac:ddc6a5c8623858be8619c631c47e28e7
bonaventure2017-01-08d01t04.flac:b9e85ca40b1bba9d6ea346f481d1719c
bonaventure2017-01-08d01t05.flac:0f8624671cf0cd5e7ec9c524f897d9c3
bonaventure2017-01-08d01t06.flac:1dfb0b4b0a81db41b95ade283e4e4b06
bonaventure2017-01-08d01t07.flac:b4ea974469855e1e20d3a8f231040b4a
bonaventure2017-01-08d02t01.flac:e2b2fceea9e27d44e3d1051b211eee6b
bonaventure2017-01-08d02t02.flac:3d53f8d99fc8a62e3f59cfd9e110db53
bonaventure2017-01-08d02t03.flac:f07063732689d280cea14589ac2bb861
bonaventure2017-01-08d02t04.flac:4309de6bef0e5757e81e93e6c61b17a3
bonaventure2017-01-08d02t05.flac:f68c5449edf45aaedef9a227d11a65c2
bonaventure2017-01-08d02t06.flac:2faaccc3f42e225cba5cfcbcd6dacc5d
bonaventure2017-01-08d02t07.flac:8f0ccbf3633a3ec10210990f744eaca3
bonaventure2017-01-08d02t08.flac:af20a36f4e0e216fc2911ec488ed049b
bonaventure2017-01-08d02t09.flac:4242440a0915bb214141a840d3fd54e8

 length     expanded size    cdr  WAVE problems  fmt   ratio  filename
     4:35.53       48634700 B   ---   --   ---xx   flac  0.4522  bonaventure2017-01-08d01t01.flac
     5:09.64       54658172 B   ---   --   ---xx   flac  0.4889  bonaventure2017-01-08d01t02.flac
     7:02.52       74563148 B   ---   --   ---xx   flac  0.4702  bonaventure2017-01-08d01t03.flac
     5:27.27       57746348 B   ---   --   ---xx   flac  0.5055  bonaventure2017-01-08d01t04.flac
     7:27.22       78902588 B   ---   --   ---xx   flac  0.4978  bonaventure2017-01-08d01t05.flac
     6:05.68       64545980 B   ---   --   ---xx   flac  0.4961  bonaventure2017-01-08d01t06.flac
     5:38.34       59703212 B   ---   --   ---xx   flac  0.4928  bonaventure2017-01-08d01t07.flac
     6:07.51       64858796 B   ---   --   ---xx   flac  0.4842  bonaventure2017-01-08d02t01.flac
     6:03.14       64066172 B   ---   --   ---xx   flac  0.5135  bonaventure2017-01-08d02t02.flac
     5:25.69       57492332 B   ---   --   ---xx   flac  0.5224  bonaventure2017-01-08d02t03.flac
     5:08.45       54437084 B   ---   --   ---xx   flac  0.5038  bonaventure2017-01-08d02t04.flac
     6:09.21       65141036 B   ---   --   ---xx   flac  0.4716  bonaventure2017-01-08d02t05.flac
     4:25.00       46746044 B   ---   --   ---xx   flac  0.4881  bonaventure2017-01-08d02t06.flac
     5:51.19       61961132 B   ---   --   ---xx   flac  0.4754  bonaventure2017-01-08d02t07.flac
     5:41.12       60180668 B   ---   --   ---xx   flac  0.4821  bonaventure2017-01-08d02t08.flac
     4:40.14       49424972 B   ---   --   ---xx   flac  0.4732  bonaventure2017-01-08d02t09.flac
    90:59.40      963062384 B                            0.4889  (16 files)























More information about the bittorrent mailing list