[bittorrent] Marcus King Band Terminal West Atlanta, Georgia 1/7/2017 (Schoeps CCM4V'S FOB)

Automated Mailer noreply-bt.e at etree.org
Sun Jan 8 17:22:42 UTC 2017


Band:           Other
Torrent Name:   Marcus King Band Terminal West Atlanta, Georgia 1/7/2017 (Schoeps CCM4V'S FOB)
Uploaded by:    zmanatl
DB Link:        
Details:        http://bt.etree.org/details.php?id=590718

Contact the seeder at http://db.etree.org/zmanatl

If the link to this show does not work, it was probably removed for
being non-trade-friendly.

Description / text file:
-------------------------
Marcus King Band
Terminal West
Atlanta, Georgia
1/7/2017

Source: Schoeps CCM4V's>Lunatec V2>Benchmark AD2K>
Sound Devices 722 (24/44)
FOB/DFC/KFC/ZFC/AARP Clamped To The Rail Of The Balcony
DSP: Sound Devices 722>Sound Forge 10.0>CD Wave>flac(16)
ID3 Tagged In Foobar 2000
Recorded By: Z-Man
Seeded By: Z-Man

Disc I 

01 ?
02 ? >
03 ? >
04 The Man You Didn't Know > 
05 Jam >
06 Radio Soldier >
07 Wade In The Water >
08 Feels Like I'm Dyin' 

Disc II 

01 On Your Way Down >
02 ? >
03 On Your Way Down >
04 ? >
05 ? >
06 Hot 'Lanta > 
07 Drum Solo >
08 Hot "Lanta
09 Happy Birthday Justin Johnson
10 Keep Your Side Door Open >
11 Boone 
12 Rita's Gone >
13 Had To Cry Today
Encore:
14 Bring Em Back Banter
15 Plant Your Corn Early >
16 Drum Solo >
17 Plant Your Corn Early

Marcus King - Guitar And Vocals
Matt Jennings – Keyboards And Vocals
Stephen Campbell – Bass
Jack Ryan – Drums 
Dean Mitchell - Saxophone
Justin Johnson - Trumpet, Percussion, And Vocals

marcus2017-01-07d01t01.flac:5dfeaa936c485ab5fad518ec371d793e
marcus2017-01-07d01t02.flac:b4fe1e63f990e7c102052b98e5891286
marcus2017-01-07d01t03.flac:fdbdb362dd84a5862c5d48125acd7d2a
marcus2017-01-07d01t04.flac:b4928863aef57b0824baf8af472f33d9
marcus2017-01-07d01t05.flac:bf0a94281ce1f214015a1317aab2c32f
marcus2017-01-07d01t06.flac:3291d49b048e2e2ee426aaad4b2aea77
marcus2017-01-07d01t07.flac:660a58655a1a03f7601dd2f6ac5b8caa
marcus2017-01-07d01t08.flac:e0c1b0245c27aa4862c9026567b72bc0
marcus2017-01-07d02t01.flac:7d527c0f3b82065dbbd9500c52de144d
marcus2017-01-07d02t02.flac:ff93f5e9e1ee2e64304b0cf8786fdbcb
marcus2017-01-07d02t03.flac:5d47feef024007c024626b1b902e9758
marcus2017-01-07d02t04.flac:7ca347c13cafc608292d53a840d6b656
marcus2017-01-07d02t05.flac:1818d24e0c8f10d2dcd2100273f6ecb7
marcus2017-01-07d02t06.flac:f3ef3df45df7022143c1b17385703457
marcus2017-01-07d02t07.flac:a4a22f9d9fff8138ea4fef7ab15bd9fa
marcus2017-01-07d02t08.flac:46c2885fb368e596d88f89eccf4937b0
marcus2017-01-07d02t09.flac:265e279244deba629cb445709ece0e85
marcus2017-01-07d02t10.flac:310e9ffb0084a078c646c3c440f87391
marcus2017-01-07d02t11.flac:b8545cb948bde0e945fe0b03f8edc658
marcus2017-01-07d02t12.flac:828692b6c2eebf9bf595e415bc074436
marcus2017-01-07d02t13.flac:e5820d951a3dd0e0ad8a0cc42eb394e7
marcus2017-01-07d02t14.flac:5cdbf7e5a9d7e0d2cbd2b22a59fa29e7
marcus2017-01-07d02t15.flac:c871f5ea04881b2608d4c5b4f1f50cfd
marcus2017-01-07d02t16.flac:86c76fe04095af6e449e7be7b608d25b
marcus2017-01-07d02t17.flac:4a54fa0bfa5748e326a5d3ba93904613

length     expanded size    cdr  WAVE problems  fmt   ratio  filename
     6:50.23       72378140 B   ---   --   ---xx   flac  0.5558  marcus2017-01-07d01t01.flac
     5:48.00       61387244 B   ---   --   ---xx   flac  0.5482  marcus2017-01-07d01t02.flac
     7:18.69       77425532 B   ---   --   ---xx   flac  0.5818  marcus2017-01-07d01t03.flac
     2:25.69       25740332 B   ---   --   ---xx   flac  0.4286  marcus2017-01-07d01t04.flac
    11:37.24      123007292 B   ---   --   ---xx   flac  0.5306  marcus2017-01-07d01t05.flac
     5:59.63       63475820 B   ---   --   ---xx   flac  0.5423  marcus2017-01-07d01t06.flac
     1:19.14       13968572 B   ---   --   ---xx   flac  0.4489  marcus2017-01-07d01t07.flac
     8:07.29       85975052 B   ---   --   ---xx   flac  0.5209  marcus2017-01-07d01t08.flac
     7:56.57       84100508 B   ---   --   ---xx   flac  0.5412  marcus2017-01-07d02t01.flac
     1:31.28       16118300 B   ---   --   ---xx   flac  0.5537  marcus2017-01-07d02t02.flac
     2:08.53       22703900 B   ---   --   ---xx   flac  0.5311  marcus2017-01-07d02t03.flac
     3:53.06       41115356 B   ---   --   ---xx   flac  0.5318  marcus2017-01-07d02t04.flac
     8:12.51       86908796 B   ---   --   ---xx   flac  0.5092  marcus2017-01-07d02t05.flac
     3:33.24       37629692 B   ---   --   ---xx   flac  0.5672  marcus2017-01-07d02t06.flac
     4:14.15       44840924 B   ---   --   ---xx   flac  0.5155  marcus2017-01-07d02t07.flac
     1:45.31       18594956 B   ---   --   ---xx   flac  0.5455  marcus2017-01-07d02t08.flac
     1:01.62       10906268 B   ---   --   ---xx   flac  0.4147  marcus2017-01-07d02t09.flac
     5:53.29       62337452 B   ---   --   ---xx   flac  0.5070  marcus2017-01-07d02t10.flac
     7:56.22       84018188 B   ---   --   ---xx   flac  0.5605  marcus2017-01-07d02t11.flac
     8:32.35       90399164 B   ---   --   ---xx   flac  0.5233  marcus2017-01-07d02t12.flac
     3:41.20       39031484 B   ---   --   ---xx   flac  0.5675  marcus2017-01-07d02t13.flac
     1:36.08       16953260 B   ---   --   ---xx   flac  0.4411  marcus2017-01-07d02t14.flac
     3:33.23       37627340 B   ---   --   ---xx   flac  0.5560  marcus2017-01-07d02t15.flac
     3:21.27       35519948 B   ---   --   ---xx   flac  0.5122  marcus2017-01-07d02t16.flac
     8:13.50       87082844 B   ---   --   ---xx   flac  0.5453  marcus2017-01-07d02t17.flac
   126:32.07     1339246364 B                            0.5336  (25 files)











More information about the bittorrent mailing list