[bittorrent] gd1985-03-28.137507.set1.sbd.miller.flac16

Automated Mailer noreply-bt.e at etree.org
Sun Jan 8 02:11:02 UTC 2017


Band:           Grateful Dead
Torrent Name:   gd1985-03-28.137507.set1.sbd.miller.flac16
Uploaded by:    greendude
DB Link:        
Details:        http://bt.etree.org/details.php?id=590711

Contact the seeder at http://db.etree.org/greendude

If the link to this show does not work, it was probably removed for
being non-trade-friendly.

Description / text file:
-------------------------
Grateful Dead - March 28, 1985
Nassau Coliseum - Uniondale, NY

Recording Info:
SBD -> PCM Master > Dat Clone (44.1k)

Transfer Info:
Dat (Sony R500) > Sound Devices 744T > Samplitude Pro X3 Suite > FLAC
(1 Disc Audio / 1 Disc FLAC)

All Transfers and Mastering By Charlie Miller
charliemiller87 at earthlink.net
January 7, 2017

Notes:
-- Thanks to David Gans for lending me his Dat
-- I was front row in front of Phil for this show

Set 1:
01 - Tuning
02 - Truckin' >
03 - Smokestack Lightning >
04 - High Time
05 - El Paso
06 - Peggy-O
07 - Cassidy >
08 - China Cat Sunflower >
09 - I Know You Rider


SHNTOOL OUTPUT:
    length     expanded size    cdr  WAVE problems  fmt   ratio  filename
     3:17.11       34776716 B   ---   --   ---xx   flac  0.4206  01 Tuning.flac
     7:17.52       77209148 B   ---   --   ---xx   flac  0.6361  02 Truckin'.flac
     5:35.53       59218700 B   ---   --   ---xx   flac  0.5999  03 Smokestack Lightning.flac
     8:08.29       86151452 B   ---   --   ---xx   flac  0.5585  04 High Time.flac
     4:48.48       50916140 B   ---   --   ---xx   flac  0.6310  05 El Paso.flac
     7:41.65       81473324 B   ---   --   ---xx   flac  0.5841  06 Peggy-O.flac
     6:09.68       65251580 B   ---   --   ---xx   flac  0.6200  07 Cassidy.flac
     5:07.23       54208940 B   ---   --   ---xx   flac  0.6526  08 China Cat Sunflower.flac
     5:59.09       63348812 B   ---   --   ---xx   flac  0.6378  09 I Know You Rider.flac
    54:05.58      572554812 B                            0.5996  (9 files)




More information about the bittorrent mailing list