[bittorrent] gd1985-11-21.137508.sbd.miller.flac16

Automated Mailer noreply-bt.e at etree.org
Sun Jan 8 02:04:37 UTC 2017


Band:           Grateful Dead
Torrent Name:   gd1985-11-21.137508.sbd.miller.flac16
Uploaded by:    greendude
DB Link:        
Details:        http://bt.etree.org/details.php?id=590710

Contact the seeder at http://db.etree.org/greendude

If the link to this show does not work, it was probably removed for
being non-trade-friendly.

Description / text file:
-------------------------
Grateful Dead - November 21, 1985
Henry J. Kaiser Convention Center - Oakland, CA

Recording Info:
SBD -> PCM Master > Dat Clone (44.1k)

Transfer Info:
Dat (Sony R500) > Sound Devices 744T > Samplitude Pro X3 Suite > FLAC
(1 Disc Audio / 1 Disc FLAC)

All Transfers and Mastering By Charlie Miller
charliemiller87 at earthlink.net
January 7, 2017

Notes:
-- Thanks to David Gans for lending me his Dat

Set 1:
01 - Tuning
02 - Big Boy Pete
03 - Dire Wolf
04 - Little Red Rooster
05 - Brown Eyed Women
06 - Me And My Uncle >
07 - Mexicali Blues
08 - Ramble On Rose >
09 - Looks Like Rain >
10 - Might As Well


SHNTOOL OUTPUT:
    length     expanded size    cdr  WAVE problems  fmt   ratio  filename
     0:37.14        6559772 B   ---   --   ---xx   flac  0.3837  01 Tuning.flac
     3:10.11       33541916 B   ---   --   ---xx   flac  0.6130  02 Big Boy Pete.flac
     4:44.19       50142332 B   ---   --   ---xx   flac  0.5650  03 Dire Wolf.flac
     7:46.62       82348268 B   ---   --   ---xx   flac  0.5751  04 Little Red Rooster.flac
     6:16.61       66469916 B   ---   --   ---xx   flac  0.5922  05 Brown Eyed Women.flac
     3:01.71       32095436 B   ---   --   ---xx   flac  0.6181  06 Me And My Uncle.flac
     4:32.24       48037292 B   ---   --   ---xx   flac  0.6113  07 Mexicali Blues.flac
     6:42.44       71016332 B   ---   --   ---xx   flac  0.6009  08 Ramble On Rose.flac
     8:33.38       90582620 B   ---   --   ---xx   flac  0.5616  09 Looks Like Rain.flac
     4:43.18       49963580 B   ---   --   ---xx   flac  0.6670  10 Might As Well.flac
    50:08.62      530757464 B                            0.5920  (10 files)




More information about the bittorrent mailing list