[bittorrent] jgb1981-11-10.early.stankiewicz-schley.137506.flac1644

Automated Mailer noreply-bt.e at etree.org
Sun Jan 8 01:14:02 UTC 2017


Band:           Garcia
Torrent Name:   jgb1981-11-10.early.stankiewicz-schley.137506.flac1644
Uploaded by:    nfagdtrfb
DB Link:        
Details:        http://bt.etree.org/details.php?id=590708

Contact the seeder at http://db.etree.org/nfagdtrfb

If the link to this show does not work, it was probably removed for
being non-trade-friendly.

Description / text file:
-------------------------
JERRY GARCIA BAND
Palladium
New York NY
11-10-1981
Early Show

01 How Sweet It Is
02 Catfish John
03 Sitting in Limbo
04 Roadrunner
05 Simple Twist of Fate
06 That's What Love Will Make You Do
07 Deal
08 Encore: Sugaree

AUD: Beyers mics > patched thru Sony D5 > Sony TC-D5 > Hitachi 
ME-90, front of balcony(?), recording by Stankiewicz & Schley.

Transfer: MAC > Nakamichi CR-5A > Edirol FA-66 > Wavelab 2448 > 
R8Brain SRC > Wavelab (adding 16-bit patches) > CD-Wave > TLH > 
FLAC 1644 tagged. Transferred by Andrew F. 01/2017

Note: Lineage is noted as best as can be recalled at this time... 
Major tape damage, most of Simple Twist of Fate was not repairable. 
It seems like the mics were moved before the encore, the recording 
mix is a bit different. Patches from ID-18166; Simple Twist of Fate 
first 10:46, Deal first :05 seconds, and Sugaree first :07 seconds. 
Thanks Jon Pasternak & Charlie McGuth for organizing this project!

    length     expanded size    cdr  WAVE problems  fmt   ratio  filename
     8:06.34       85810412 B   ---   --   ---xx   flac  0.6336  jgb1981-11-10t01.flac
    10:12.65      108109724 B   ---   --   ---xx   flac  0.6145  jgb1981-11-10t02.flac
    10:18.03      109022300 B   ---   --   ---xx   flac  0.6104  jgb1981-11-10t03.flac
     7:58.36       84403916 B   ---   --   ---xx   flac  0.6358  jgb1981-11-10t04.flac
    14:18.02      151355948 B   ---   --   ---xx   flac  0.5398  jgb1981-11-10t05.flac
    10:01.57      106150508 B   ---   --   ---xx   flac  0.6329  jgb1981-11-10t06.flac
     8:29.71       89954636 B   ---   --   ---xx   flac  0.6523  jgb1981-11-10t07.flac
    10:12.36      108041516 B   ---   --   ---xx   flac  0.6387  jgb1981-11-10t08.flac
    79:38.04      842848960 B                            0.6141  (8 files)

No errors occured.




More information about the bittorrent mailing list