[bittorrent] Escape Vehicle Remembering Mikey Smith's Olde Bar Atlanta, Georgia 1/6/2017 (Schoeps CCM4V'S FOB)

Automated Mailer noreply-bt.e at etree.org
Sat Jan 7 16:18:33 UTC 2017


Band:           Other
Torrent Name:   Escape Vehicle Remembering Mikey Smith's Olde Bar Atlanta, Georgia 1/6/2017 (Schoeps CCM4V'S FOB)
Uploaded by:    zmanatl
DB Link:        
Details:        http://bt.etree.org/details.php?id=590701

Contact the seeder at http://db.etree.org/zmanatl

If the link to this show does not work, it was probably removed for
being non-trade-friendly.

Description / text file:
-------------------------
Escape Vehicle
Remembering Mikey 
Smith's Olde Bar
Atlanta, Georgia
1/6/2017

Source: Schoeps CCM4V's>Lunatec V2>Benchmark AD2K>
Sound Devices 722 (24/44)
FOB/DFC/KFC/ZFC/AARP 17' From Stage, 7 1/2' High
DSP: Sound Devices 722>Sound Forge 10.0>CD Wave>flac(16)
ID3 Tagged In Foobar 2000
Recorded By: Z-Man
Seeded By: Z-Man

Disc I 

01 Aint Life Grand 
02 Ophelia
03 Cream Puff War
04 Dirty Minds >
05 Red Hot Mama >
06 Arlene >
07 Red Hot Mama 
08 Postcard 
09 Protein Drink >
10 Ride Me High >
11 Protein Drink >
12 Sewing Machine 
13 *Ain't Life Grand

* First Time Played

Kevin Moore - Guitar And Vocals 
Scott Lofranco - Guitar And Vocals
Grant Duffy – Keyboards And Vocals
Malcom Fields – Bass
Ryan Marcus – Drums 

escape2017-01-06d01t01.flac:ecb212b097a0fb6e664358a0e5d4b2a3
escape2017-01-06d01t02.flac:18f4eac961fcf96b3d46fd4286e33b53
escape2017-01-06d01t03.flac:1f284ff5c7ae0126bcb5e919c3c3680e
escape2017-01-06d01t04.flac:d8e581f82b496475df5ce7e75252db03
escape2017-01-06d01t05.flac:77f2d7c3e1eddbad413b4eb50fcbd701
escape2017-01-06d01t06.flac:5f2cc052cd6579a43cc10800effea3aa
escape2017-01-06d01t07.flac:f31d011ff91b586b33faebc79d35f009
escape2017-01-06d01t08.flac:840b24f891ccc3a8ac11a3f551f27ec7
escape2017-01-06d01t09.flac:fb7d09ac3525f47a0ab48dfc5a143b88
escape2017-01-06d01t10.flac:b8e8d54ef36fa790f9f5d133b5e5320b
escape2017-01-06d01t11.flac:823fde817a2e14c7781d3959d1f8beab
escape2017-01-06d01t12.flac:fbcb15e3348dd716ccaf975226775a5b
escape2017-01-06d01t13.flac:939f7ae05a0333cec26d22b717ecdf28

length     expanded size    cdr  WAVE problems  fmt   ratio  filename
     4:44.70       50262284 B   ---   --   ---xx   flac  0.4741  escape2017-01-06d01t01.flac
     4:12.46       44561036 B   ---   --   ---xx   flac  0.4641  escape2017-01-06d01t02.flac
     4:31.10       47827964 B   ---   --   ---xx   flac  0.4461  escape2017-01-06d01t03.flac
     3:21.10       35479964 B   ---   --   ---xx   flac  0.4818  escape2017-01-06d01t04.flac
     7:51.40       83178524 B   ---   --   ---xx   flac  0.4959  escape2017-01-06d01t05.flac
     6:49.17       72187628 B   ---   --   ---xx   flac  0.5039  escape2017-01-06d01t06.flac
     4:02.26       42749996 B   ---   --   ---xx   flac  0.4505  escape2017-01-06d01t07.flac
     5:15.15       55601324 B   ---   --   ---xx   flac  0.4739  escape2017-01-06d01t08.flac
     6:09.56       65223356 B   ---   --   ---xx   flac  0.4700  escape2017-01-06d01t09.flac
     8:00.09       84693212 B   ---   --   ---xx   flac  0.4942  escape2017-01-06d01t10.flac
     0:15.27        2709548 B   ---   --   ---xx   flac  0.4963  escape2017-01-06d01t11.flac
     7:15.10       76757564 B   ---   --   ---xx   flac  0.4632  escape2017-01-06d01t12.flac
     5:52.28       62158700 B   ---   --   ---xx   flac  0.4621  escape2017-01-06d01t13.flac
    68:20.64      723391100 B                            0.4760  (13 files)

















More information about the bittorrent mailing list