[bittorrent] Sam Holt Band Remembering Mikey Smith's Okde Bar Atlanta, Georgia 1/6/2017 (Schoeps CCM4V'S FOB)

Automated Mailer noreply-bt.e at etree.org
Sat Jan 7 09:51:23 UTC 2017


Band:           Sam Holt Band
Torrent Name:   Sam Holt Band Remembering Mikey Smith's Okde Bar Atlanta, Georgia 1/6/2017 (Schoeps CCM4V'S FOB)
Uploaded by:    zmanatl
DB Link:        
Details:        http://bt.etree.org/details.php?id=590699

Contact the seeder at http://db.etree.org/zmanatl

If the link to this show does not work, it was probably removed for
being non-trade-friendly.

Description / text file:
-------------------------
Sam Holt Band
Remembering Mikey 
Smith's Olde Bar
Atlanta, Georgia
1/6/2017

Source: Schoeps CCM4V's>Lunatec V2>Benchmark AD2K>
Sound Devices 722 (24/44)
FOB/DFC/KFC/ZFC/AARP 17' From Stage, 7 1/2' High
DSP: Sound Devices 722>Sound Forge 10.0>CD Wave>flac(16)
ID3 Tagged In Foobar 2000
Recorded By: Z-Man
Seeded By: Z-Man

Disc I 1st Set 

01 Larry Aquaviva Reads Of Poem On Mikey Houser/Jam >
02 The Take Out >
03 No Matter What 
04 Goodbye My Love >
05 Sandbox 
06 Can't Change The Past
07 Low Country >

Disc II 1st Set Con't

01 Where Does It Go 
02 Nacoochie Queen 
03 Country Sex Song 
04 Solitude
05 Bull Run 
06 No Cryin' Now
07 She Drives Me To Drink > 
08 Porch Song 

Disc III 2nd Set 

01 Disco >
02 Walkin' >
03 Jam >
04 ?
05 90 
06 The Waker >
07 Airplane >
08 Take-Off Jam >
09 Vacation >
10 This Part Of Town 
11 You Got Yours

Sam Holt - Guitar And Vocals
Adam Grace – Keyboards And Vocals
Ross Parker – Bass
Jeremy Ward – Drums And Vocals

samholt2017-01-06d01t01.flac:5f5ff7cd863d8050439ef331bb7f2c87
samholt2017-01-06d01t02.flac:f210095292cd9fa810744dcda223f7da
samholt2017-01-06d01t03.flac:237fd784cbb69fa858b60297f54b9794
samholt2017-01-06d01t04.flac:9066ec3c45ac42cae72fa50e86ec8bea
samholt2017-01-06d01t05.flac:82f3025979d3aa393a5bc071ebecca9b
samholt2017-01-06d01t06.flac:0d3cd0ef1e85086143b92f3411c06b07
samholt2017-01-06d01t07.flac:3b5208b32dd7c86dd009ae6171faab24
samholt2017-01-06d02t01.flac:0b66e28788ce118b539e6d1f5ef42ac1
samholt2017-01-06d02t02.flac:6fa5a5f7da46fcbff1aa231011d343f7
samholt2017-01-06d02t03.flac:8c48e9246c77205dc641def2d870f3d3
samholt2017-01-06d02t04.flac:b2da40d00821ea588ab4327a62f78de9
samholt2017-01-06d02t05.flac:aa52d6d5e97c4c24c3c20c9d34169d67
samholt2017-01-06d02t06.flac:28134583ff7d05d3dca4227019978238
samholt2017-01-06d02t07.flac:4243170d2a62602a34c6b319600e00d2
samholt2017-01-06d02t08.flac:bf047af5333c73fe39812c7c12cce17b
samholt2017-01-06d03t01.flac:a079fee6dc450bdd452010d108c122fb
samholt2017-01-06d03t02.flac:6e1b95f2fbef527950fb1999487157d4
samholt2017-01-06d03t03.flac:0eab82c8a45311e2153fc424bb92865b
samholt2017-01-06d03t04.flac:af671ac57a98bc770c3953a0a93524a4
samholt2017-01-06d03t05.flac:7117eac25c558e2e92ab684d3fdac9c9
samholt2017-01-06d03t06.flac:ab3334baf96364ef1429778e55e75712
samholt2017-01-06d03t07.flac:2dd964a77479293f6a5ef6e91850d848
samholt2017-01-06d03t08.flac:092534537f84dcfdc393c39a6e490e68
samholt2017-01-06d03t09.flac:9de9bb2d9eeb3a66ce2d9748b5d043af
samholt2017-01-06d03t10.flac:4c005216c0151fd0f787c5860d634b98
samholt2017-01-06d03t11.flac:51dcc58c7c262f40c0f0df6d1bb54e7c

length     expanded size    cdr  WAVE problems  fmt   ratio  filename
     3:02.11       32130716 B   ---   --   ---xx   flac  0.4241  samholt2017-01-06d01t01.flac
     2:33.35       27071564 B   ---   --   ---xx   flac  0.4588  samholt2017-01-06d01t02.flac
     9:09.53       96968300 B   ---   --   ---xx   flac  0.4411  samholt2017-01-06d01t03.flac
     9:33.21      101126636 B   ---   --   ---xx   flac  0.4359  samholt2017-01-06d01t04.flac
     5:56.15       62833724 B   ---   --   ---xx   flac  0.4532  samholt2017-01-06d01t05.flac
     4:55.61       52181516 B   ---   --   ---xx   flac  0.3750  samholt2017-01-06d01t06.flac
     6:57.67       73716428 B   ---   --   ---xx   flac  0.4627  samholt2017-01-06d01t07.flac
    10:39.67      112877228 B   ---   --   ---xx   flac  0.4544  samholt2017-01-06d02t01.flac
     4:39.49       49330892 B   ---   --   ---xx   flac  0.4488  samholt2017-01-06d02t02.flac
     4:08.09       43768412 B   ---   --   ---xx   flac  0.4300  samholt2017-01-06d02t03.flac
     7:13.09       76402412 B   ---   --   ---xx   flac  0.4867  samholt2017-01-06d02t04.flac
     5:08.10       54354764 B   ---   --   ---xx   flac  0.4473  samholt2017-01-06d02t05.flac
     4:26.51       47042396 B   ---   --   ---xx   flac  0.4557  samholt2017-01-06d02t06.flac
     4:34.61       48477116 B   ---   --   ---xx   flac  0.4551  samholt2017-01-06d02t07.flac
     4:07.61       43714316 B   ---   --   ---xx   flac  0.4729  samholt2017-01-06d02t08.flac
     5:26.57       57640508 B   ---   --   ---xx   flac  0.5026  samholt2017-01-06d03t01.flac
     4:48.37       50890268 B   ---   --   ---xx   flac  0.4983  samholt2017-01-06d03t02.flac
     4:18.34       45591212 B   ---   --   ---xx   flac  0.4610  samholt2017-01-06d03t03.flac
     6:15.72       66319388 B   ---   --   ---xx   flac  0.4653  samholt2017-01-06d03t04.flac
     9:15.26       97963196 B   ---   --   ---xx   flac  0.4711  samholt2017-01-06d03t05.flac
     3:50.11       40597916 B   ---   --   ---xx   flac  0.5007  samholt2017-01-06d03t06.flac
     5:36.49       59385692 B   ---   --   ---xx   flac  0.4719  samholt2017-01-06d03t07.flac
     7:47.09       82400012 B   ---   --   ---xx   flac  0.4806  samholt2017-01-06d03t08.flac
    10:20.46      109476236 B   ---   --   ---xx   flac  0.4673  samholt2017-01-06d03t09.flac
     6:37.50       70148444 B   ---   --   ---xx   flac  0.4425  samholt2017-01-06d03t10.flac
     9:45.36      103278716 B   ---   --   ---xx   flac  0.4997  samholt2017-01-06d03t11.flac
   161:09.32     1705688008 B                            0.4614  (26 files)


















More information about the bittorrent mailing list