[bittorrent] Col. Bruce Hampton And Friends Vista At Napoleon's Atlanta, Georgia 1/5/2017 (Schoeps CCM4V'S FOB)

Automated Mailer noreply-bt.e at etree.org
Fri Jan 6 15:35:51 UTC 2017


Band:           Other
Torrent Name:   Col. Bruce Hampton And Friends Vista At Napoleon's Atlanta, Georgia 1/5/2017 (Schoeps CCM4V'S FOB)
Uploaded by:    zmanatl
DB Link:        
Details:        http://bt.etree.org/details.php?id=590689

Contact the seeder at http://db.etree.org/zmanatl

If the link to this show does not work, it was probably removed for
being non-trade-friendly.

Description / text file:
-------------------------
Col. Bruce Hampton And Friends
Vista At Napoleon's
Decatur, Georgia
1/5/2017

Source: Schoeps CCM4V's>Lunatec V2>Benchmark AD2K>
Sound Devices 722 (24/44)
FOB/DFC/KFC/ZFC/AARP 20' From Stage, 6 1/2' High
DSP: Sound Devices 722>Sound Forge 10.0>CD Wave>flac(16)
ID3 Tagged In Foobar 2000
Recorded By: Z-Man
Seeded By: Z-Man

Disc I 1st Set 

01 Face The Music >
02 Feelin' Good >
03 Ain't Nothin' You Can Do >
04 Don't Go Into That Room >
05 I Wish It Would Rain 
06 Fixin' To Die Rag >
07 There Was A Time 
08 Cry Me A River >
09 Yield Not To Temptation >
10 Turn On Your Lovelight Jam >
11 Yield Not To Temptation

Disc II 2nd Set

01 I Can't Quit You Baby 
02 Basically Freightend
03 Let The Good Times Roll > 
04 The Grograns Have Arrived
05 Cold Sweat 

Disc III 2nd Set Con't 

01 Give Thanks To Chank >
02 Space Is The Place 
03 Dust My Broom >
04 Got My MoJo Working >
05 You Got Tne Blues >
06 Hey Pockey Way >
07 Bless Your Soul
Encore:
08 Goodnight Irene >
09 Jack The Rabbit
10 Happy Birthday/Outro

Col. Bruce Hampton - Guitar And Vocals
Tyler Neel - Guitar And Vocals
Dante Harmon - Sacred Slide Steel
Joseph ? - Bass And Vocals
Darren Stanley - Drums And Vocals
Wildman Steve - Washboard
Daniel Wytanis - Trombone
Paul Garrett - Trumpet
Brian Fowler - Mandolin
Big Mike - Percussion

colbruce2017-01-05d01t01.flac:833661f0a1f518bc30fdcec7a92ee786
colbruce2017-01-05d01t02.flac:b6972dbb37004e97f84ac891c9e212e0
colbruce2017-01-05d01t03.flac:4fb89007673ed1a98b69bfaadc03a5a0
colbruce2017-01-05d01t04.flac:31e585a92779c07f851d22049a4b036d
colbruce2017-01-05d01t05.flac:3d91feda0b4a7aab5afad3d2960be867
colbruce2017-01-05d01t06.flac:69c33d118aab601acbd9f3c902ca8a78
colbruce2017-01-05d01t07.flac:350cbf8e69496c86d80a64f794674940
colbruce2017-01-05d01t08.flac:bf113ab1e3f9b03e3976a216fbb00f38
colbruce2017-01-05d01t09.flac:45b3741d7a04f995957ddb032e9d0f6c
colbruce2017-01-05d01t10.flac:b02c1bc41fbb0b05ff9ba1726caf7834
colbruce2017-01-05d01t11.flac:af1f12f7107e09bbb07f4cb27da48a79
colbruce2017-01-05d02t01.flac:7973d079a5b9dd56ae8ae89c27743a3e
colbruce2017-01-05d02t02.flac:82037286e89d3f6ba3147079ce46f57d
colbruce2017-01-05d02t03.flac:5d850fce0bb2905fd7f7056192da76ca
colbruce2017-01-05d02t04.flac:4a5e9eea382095478ffc10b345f7929e
colbruce2017-01-05d02t05.flac:d0796065e0447442204993710e6988ed
colbruce2017-01-05d03t01.flac:4387ffc25a34aa904b06e2ae774772c3
colbruce2017-01-05d03t02.flac:7cffd83eaa49c8a7395f7d5e00844efe
colbruce2017-01-05d03t03.flac:a9826650c1e3ef4baab860ef8de243b0
colbruce2017-01-05d03t04.flac:e11fd06c65d430c4370cc19b0f831e95
colbruce2017-01-05d03t05.flac:bcd31fdaa5d959bdfa046db146d8a372
colbruce2017-01-05d03t06.flac:bc1e02ca402b8293375922ff480abf2d
colbruce2017-01-05d03t07.flac:e669712df8ef7b7832ee406cf64ef3f7
colbruce2017-01-05d03t08.flac:36f92c0e39a591b520e72daa7fb292e7
colbruce2017-01-05d03t09.flac:51bdc96cddd6af7d6c9e491f34547d12
colbruce2017-01-05d03t10.flac:5a4e531e26a9522803c2d56186cffb46

  length     expanded size    cdr  WAVE problems  fmt   ratio  filename
     3:03.11       32307116 B   ---   --   ---xx   flac  0.4648  colbruce2017-01-05d01t01.flac
    11:55.23      126180140 B   ---   --   ---xx   flac  0.5676  colbruce2017-01-05d01t02.flac
     9:49.74      104073692 B   ---   --   ---xx   flac  0.5230  colbruce2017-01-05d01t03.flac
     6:12.47       65731388 B   ---   --   ---xx   flac  0.5424  colbruce2017-01-05d01t04.flac
     5:01.45       53202284 B   ---   --   ---xx   flac  0.5341  colbruce2017-01-05d01t05.flac
     9:56.65      105287324 B   ---   --   ---xx   flac  0.5345  colbruce2017-01-05d01t06.flac
     7:43.36       81757916 B   ---   --   ---xx   flac  0.6133  colbruce2017-01-05d01t07.flac
     4:59.49       52858892 B   ---   --   ---xx   flac  0.5662  colbruce2017-01-05d01t08.flac
     5:06.36       54063116 B   ---   --   ---xx   flac  0.5809  colbruce2017-01-05d01t09.flac
     3:38.28       38521100 B   ---   --   ---xx   flac  0.6050  colbruce2017-01-05d01t10.flac
     1:05.46       11574236 B   ---   --   ---xx   flac  0.4960  colbruce2017-01-05d01t11.flac
     5:35.33       59171660 B   ---   --   ---xx   flac  0.5251  colbruce2017-01-05d02t01.flac
     9:24.49       99604892 B   ---   --   ---xx   flac  0.4967  colbruce2017-01-05d02t02.flac
     7:27.43       78951980 B   ---   --   ---xx   flac  0.5849  colbruce2017-01-05d02t03.flac
     6:29.25       68678444 B   ---   --   ---xx   flac  0.5012  colbruce2017-01-05d02t04.flac
    10:46.27      114017948 B   ---   --   ---xx   flac  0.5717  colbruce2017-01-05d02t05.flac
     1:17.61       13726316 B   ---   --   ---xx   flac  0.5462  colbruce2017-01-05d03t01.flac
     7:11.45       76134284 B   ---   --   ---xx   flac  0.6164  colbruce2017-01-05d03t02.flac
     6:37.25       70089644 B   ---   --   ---xx   flac  0.5618  colbruce2017-01-05d03t03.flac
     7:39.49       81082892 B   ---   --   ---xx   flac  0.5388  colbruce2017-01-05d03t04.flac
     1:16.10       13429964 B   ---   --   ---xx   flac  0.5179  colbruce2017-01-05d03t05.flac
     8:18.56       87978956 B   ---   --   ---xx   flac  0.5921  colbruce2017-01-05d03t06.flac
     8:50.61       93635516 B   ---   --   ---xx   flac  0.5592  colbruce2017-01-05d03t07.flac
     3:09.62       33485468 B   ---   --   ---xx   flac  0.4501  colbruce2017-01-05d03t08.flac
     4:22.26       46277996 B   ---   --   ---xx   flac  0.5589  colbruce2017-01-05d03t09.flac
     1:11.33       12602060 B   ---   --   ---xx   flac  0.4432  colbruce2017-01-05d03t10.flac
   158:12.15     1674425224 B                            0.5516  (26 files)













More information about the bittorrent mailing list