[bittorrent] Indigo Girls Terminal West Atlanta, Georgia 1/4/2017 (Schoeps CCM4V'S FOB)

Automated Mailer noreply-bt.e at etree.org
Thu Jan 5 17:27:37 UTC 2017


Band:           Indigo Girls
Torrent Name:   Indigo Girls Terminal West Atlanta, Georgia 1/4/2017 (Schoeps CCM4V'S FOB)
Uploaded by:    zmanatl
DB Link:        
Details:        http://bt.etree.org/details.php?id=590683

Contact the seeder at http://db.etree.org/zmanatl

If the link to this show does not work, it was probably removed for
being non-trade-friendly.

Description / text file:
-------------------------
Indigo Girls
Benefit For Project Interconnections
Terminal West
Atlanta, Georgia
1/4/2017

Source: Schoeps CCM4V's>Lunatec V2>Benchmark AD2K>
Sound Devices 722 (24/44)
FOB/DFC/KFC/ZFC/AARP Clamped To Rail Of The Front Of The Balcony
DSP: Sound Devices 722>Sound Forge 10.0>CD Wave>flac(16)
ID3 Tagged In Foobar 2000
Recorded By: Z-Man
Seeded By: Z-Man

Disc I 

01 Amy Ray Greeting 
02 Darlene Shultz Of 3 Keys
03 Get Out The Map
04 Devotion
05 Happy Birthday Lera
06 Love Of Our Lives
07 Damo
08 Power Of Two
09 Spread The Pain Around
10 It's Alright
11 Land Of Canaan 
12 Southland In The Springtime
13 Happy In The Sorrow Key
14 Violin Intro >
15 The Wood Song

Disc II 

01 Share The Moon 
02 Elizabeth
03 The Rise Of The Black Messiah
04 Hammer And A Nail 
05 Dairy Queen
06 *Train Inside
07 Go
08 Banter On 3 Key
09 Galileo
Encore:
10 Thanks/Shame On You >
11 Cortez The Killer 
12 #Closer To Finer

* Emily And Lyris Duet
# With Becky Warren On Vocals

Amy Ray - Guitar, Mandolin, Harmonica, And Vocals
Emily Saliers - Guitar, Mandolin, Banjo, And Vocals
Lyris Hung - Violin, Mandolin, Dulcimer, And Vocals 

indigo2017-01-04d01t01.flac:cacf88671136269c47f56de7e4fe0ac5
indigo2017-01-04d01t02.flac:4ec069625747dc55fbce307dd21e57dd
indigo2017-01-04d01t03.flac:195a0d06717064ef91e74e81a08ba7c3
indigo2017-01-04d01t04.flac:37daadc88ee8d361ac6fd164c1d9cad0
indigo2017-01-04d01t05.flac:5039384c4b56e1a9ba085a884ec51960
indigo2017-01-04d01t06.flac:4561ffbeb16373e3588ca8f9cd9c8224
indigo2017-01-04d01t07.flac:f3596170219470a2089f6ee4eabeeac0
indigo2017-01-04d01t08.flac:7c70988732c911078c27feb8c07e250d
indigo2017-01-04d01t09.flac:fec6da019fb8f7c91d54a245ce126281
indigo2017-01-04d01t10.flac:8984dea89369aa6f4e85e4ec7f3f3ab8
indigo2017-01-04d01t11.flac:1575543f9a28738da7c4af2e5c7bf819
indigo2017-01-04d01t12.flac:92010a6ecc48b987353d603c269944ff
indigo2017-01-04d01t13.flac:fdfa97496e23f8de50f76c2de5b6537c
indigo2017-01-04d01t14.flac:00826fa2c3b60c609f37e21035bbc470
indigo2017-01-04d01t15.flac:218436868b48e263461c990ff0bffe7d
indigo2017-01-04d02t01.flac:56c9e38dff50f4eaa37f6b77edb6fa4d
indigo2017-01-04d02t02.flac:2e28dde95ee5f20eadda9eefbf8ae849
indigo2017-01-04d02t03.flac:14793c6eecfb66b49ce91209da0024bc
indigo2017-01-04d02t04.flac:8643bfba9ff18e411a90d7163def141e
indigo2017-01-04d02t05.flac:39500944d3b29c00f4b7d4e2c98d7281
indigo2017-01-04d02t06.flac:d098c868774fde3e1714bd9d69f1f313
indigo2017-01-04d02t07.flac:7306559be0c1e6a6660c394123296291
indigo2017-01-04d02t08.flac:dca26f3e921dfafb528d7d9ecef5d087
indigo2017-01-04d02t09.flac:97a78e3409020e3846e5c8ec0bb5fbc7
indigo2017-01-04d02t10.flac:ecc80ea7ad108ddf3bcdb16983f2056d
indigo2017-01-04d02t11.flac:9d13f6f629103b9977d47525be2c014a
indigo2017-01-04d02t12.flac:7e642214c4d1041c72cfb23652925cb6

length     expanded size    cdr  WAVE problems  fmt   ratio  filename
     1:15.38       13319420 B   ---   --   ---xx   flac  0.4339  indigo2017-01-04d01t01.flac
     4:01.21       42561836 B   ---   --   ---xx   flac  0.3535  indigo2017-01-04d01t02.flac
     3:45.22       39741788 B   ---   --   ---xx   flac  0.5055  indigo2017-01-04d01t03.flac
     3:43.43       39438380 B   ---   --   ---xx   flac  0.5526  indigo2017-01-04d01t04.flac
     0:45.32        8013308 B   ---   --   ---xx   flac  0.4217  indigo2017-01-04d01t05.flac
     5:15.28       55631900 B   ---   --   ---xx   flac  0.4945  indigo2017-01-04d01t06.flac
     5:11.59       54999212 B   ---   --   ---xx   flac  0.5390  indigo2017-01-04d01t07.flac
     5:54.63       62593820 B   ---   --   ---xx   flac  0.4666  indigo2017-01-04d01t08.flac
     4:48.27       50866748 B   ---   --   ---xx   flac  0.4801  indigo2017-01-04d01t09.flac
     3:39.13       38662220 B   ---   --   ---xx   flac  0.5260  indigo2017-01-04d01t10.flac
     4:45.09       50295212 B   ---   --   ---xx   flac  0.5722  indigo2017-01-04d01t11.flac
     5:03.63       53597420 B   ---   --   ---xx   flac  0.4559  indigo2017-01-04d01t12.flac
     3:01.08       31947260 B   ---   --   ---xx   flac  0.4777  indigo2017-01-04d01t13.flac
     1:21.22       14340188 B   ---   --   ---xx   flac  0.4121  indigo2017-01-04d01t14.flac
     4:26.69       47084732 B   ---   --   ---xx   flac  0.5005  indigo2017-01-04d01t15.flac
     4:59.40       52837724 B   ---   --   ---xx   flac  0.4124  indigo2017-01-04d02t01.flac
     4:43.31       49994156 B   ---   --   ---xx   flac  0.4815  indigo2017-01-04d02t02.flac
     5:11.17       54900428 B   ---   --   ---xx   flac  0.5065  indigo2017-01-04d02t03.flac
     4:44.58       50234060 B   ---   --   ---xx   flac  0.5179  indigo2017-01-04d02t04.flac
     5:00.61       53063516 B   ---   --   ---xx   flac  0.5021  indigo2017-01-04d02t05.flac
     4:41.44       49671932 B   ---   --   ---xx   flac  0.4190  indigo2017-01-04d02t06.flac
     4:24.39       46661372 B   ---   --   ---xx   flac  0.5330  indigo2017-01-04d02t07.flac
     2:17.40       24260924 B   ---   --   ---xx   flac  0.4089  indigo2017-01-04d02t08.flac
     4:52.73       51680540 B   ---   --   ---xx   flac  0.5455  indigo2017-01-04d02t09.flac
     4:34.07       48350108 B   ---   --   ---xx   flac  0.5288  indigo2017-01-04d02t10.flac
     5:09.06       54521756 B   ---   --   ---xx   flac  0.5070  indigo2017-01-04d02t11.flac
     5:36.48       59383340 B   ---   --   ---xx   flac  0.5388  indigo2017-01-04d02t12.flac
   113:15.06     1198653300 B                            0.4926  (27 files)







More information about the bittorrent mailing list