[bittorrent] Donna The Buffalo City Winery Atlanta, Georgia 1/3/2017 (Schoeps CCM4V'S FOB)

Automated Mailer noreply-bt.e at etree.org
Wed Jan 4 19:10:27 UTC 2017


Band:           Donna the Buffalo
Torrent Name:   Donna The Buffalo City Winery Atlanta, Georgia 1/3/2017 (Schoeps CCM4V'S FOB)
Uploaded by:    zmanatl
DB Link:        
Details:        http://bt.etree.org/details.php?id=590671

Contact the seeder at http://db.etree.org/zmanatl

If the link to this show does not work, it was probably removed for
being non-trade-friendly.

Description / text file:
-------------------------
Donna The Buffalo
City Winery
Atlanta, Georgia
1/3/2017

Source: Schoeps CCM4V's>Lunatec V2>Benchmark AD2K>
Sound Devices 722 (24/44)
FOB/DFC/KFC/ZFC/AARP Clamped To The Front Of The Soundboard, 7' High
DSP: Sound Devices 722>Sound Forge 10.0>CD Wave>flac(16)
ID3 Tagged In Foobar 2000
Recorded By: Z-Man
Seeded By: Z-Man

Disc I 

01 Announcements And Band Introduction
02 Come To Life
03 Temporary Misery
04 ?
05 You Better Look Both Ways
06 When It's Meant To Be
07 I Love My Tribe >
08 Family Picture
09 Conscious Evolution

Disc II 

01 No Place Like The Right Time
02 ?
03 Swing That Thing
04 The Mystery
05 If You Only Could
06 Funky Side

donna2017-01-03d01t01.flac:1d330233b4dd7a0e87073111bf2c9796
donna2017-01-03d01t02.flac:e59eb29b1005da36ca77bfcf97dadb68
donna2017-01-03d01t03.flac:f3c9df81b9993813f28402787334cc14
donna2017-01-03d01t04.flac:c89390cb52ab7f9442e4fcec9e487e4c
donna2017-01-03d01t05.flac:afb8198f13769efbef67ff83f22eec97
donna2017-01-03d01t06.flac:074171d8b2036f335e4313b81249da86
donna2017-01-03d01t07.flac:44b71fdf7de081ef7b6a1a6f7fc16d43
donna2017-01-03d01t08.flac:e7ec48e3e549e494a694d00d40215a32
donna2017-01-03d01t09.flac:24259733953819896d1879b954813520
donna2017-01-03d02t01.flac:46de9447ac34e00f40b60c912cdd3c53
donna2017-01-03d02t02.flac:6baeedecb86e826adf11429a3e234201
donna2017-01-03d02t03.flac:d8271435323c41bb7d4ece3ee2e9cbd0
donna2017-01-03d02t04.flac:70629d36766e47afd3c823866a2ac09c
donna2017-01-03d02t05.flac:2df7f27e34250d5d80ef3420c07f2a55
donna2017-01-03d02t06.flac:fa12f7d9da985af8d73b22a291cbbd06

 length     expanded size    cdr  WAVE problems  fmt   ratio  filename
     1:56.02       20467148 B   ---   --   -----    wav  1.0000  donna2017-01-03d01t01.wav
     5:19.25       56330444 B   ---   --   -----    wav  1.0000  donna2017-01-03d01t02.wav
     3:31.50       37338044 B   ---   --   -----    wav  1.0000  donna2017-01-03d01t03.wav
     4:56.13       52245020 B   ---   --   -----    wav  1.0000  donna2017-01-03d01t04.wav
     4:57.32       52466108 B   ---   --   -----    wav  1.0000  donna2017-01-03d01t05.wav
     5:00.58       53056460 B   ---   --   -----    wav  1.0000  donna2017-01-03d01t06.wav
     2:43.50       28870844 B   ---   --   -----    wav  1.0000  donna2017-01-03d01t07.wav
     7:09.28       75741500 B   ---   --   -----    wav  1.0000  donna2017-01-03d01t08.wav
     6:54.62       73176476 B   -b-   --   -----    wav  1.0000  donna2017-01-03d01t09.wav
     6:20.28       67097900 B   ---   --   -----    wav  1.0000  donna2017-01-03d02t01.wav
     7:09.01       75677996 B   ---   --   -----    wav  1.0000  donna2017-01-03d02t02.wav
     6:31.14       69005372 B   ---   --   -----    wav  1.0000  donna2017-01-03d02t03.wav
     9:29.24      100428092 B   ---   --   -----    wav  1.0000  donna2017-01-03d02t04.wav
     7:40.02       81148748 B   ---   --   -----    wav  1.0000  donna2017-01-03d02t05.wav
     7:48.42       82654700 B   -b-   --   -----    wav  1.0000  donna2017-01-03d02t06.wav
    87:27.57      925704852 B                            1.0000  (15 files)















More information about the bittorrent mailing list