[bittorrent] Butch Trucks City Winery Atlanta, Georgia 1/3/2017 (Schoeps CCM4V'S FOB)

Automated Mailer noreply-bt.e at etree.org
Wed Jan 4 17:04:29 UTC 2017


Band:           Other
Torrent Name:   Butch Trucks City Winery Atlanta, Georgia 1/3/2017 (Schoeps CCM4V'S FOB)
Uploaded by:    zmanatl
DB Link:        
Details:        http://bt.etree.org/details.php?id=590668

Contact the seeder at http://db.etree.org/zmanatl

If the link to this show does not work, it was probably removed for
being non-trade-friendly.

Description / text file:
-------------------------
Butch Trucks And The Freight Train Band
City Winery
Atlanta, Georgia
1/3/2017

Source: Schoeps CCM4V's>Lunatec V2>Benchmark AD2K>
Sound Devices 722 (24/44)
FOB/DFC/KFC/ZFC/AARP Clamped To The Front Of The Soundboard, 7' High
DSP: Sound Devices 722>Sound Forge 10.0>CD Wave>flac(16)
ID3 Tagged In Foobar 2000
Recorded By: Z-Man
Seeded By: Z-Man

Disc I 

01 Hot 'Lanta >
02 Trouble No More >
03 Freeway Jam
04 Butch - Band Introductions
05 *Subteranean Homesick Blues
06 Up The Line
07 #Dreams
08 Every Day Will Be Like A Holiday 
09 Jessica

Disc II 

01 @Statesboro Blues 
02 Butch Banter And Trivia
03 Out From The Center
04 @Ophelia
05 *Compared To What >
06 In Memory Of Elizabeth Reed >
07 Drum Solo >
08 In Memory Of Elizabeth Reed

* With Justin Headley On Drums
# With Lamar Williams Jr. On Vocals
@ With Melanie Trucks On Vocals

Butch Trucks - Drums And Vocals
Bruce Katz - Keyboards
Matt Walker - Bass
Damon Fowler - Guitar And Vocals
Heather Gillis - Guitar
Chris Vitarello - Guitar And Vocals
Garrett Dawson - Percussion

butch2017-01-03d01t01.flac:c94b6d323948b031f52d2920db2efdb3
butch2017-01-03d01t02.flac:884b6fbe0cf8211b157a6a90d862487f
butch2017-01-03d01t03.flac:7c52d325bb6a671b3a8f02cbd0386feb
butch2017-01-03d01t04.flac:fb89ee6f72eba8f6e892d9ee805b5865
butch2017-01-03d01t05.flac:0c9a6e0fdea02c51dafd2ec9d571fbb9
butch2017-01-03d01t06.flac:a2f09960da422b2efda99a2b746e7780
butch2017-01-03d01t07.flac:2e4cf8246e95503ebbce47a7469c66ba
butch2017-01-03d01t08.flac:4ad69c677fca9a9fb830ed14e9f5dc21
butch2017-01-03d01t09.flac:13b3128e5aea9ac33a691d2216b6d7ad
butch2017-01-03d02t01.flac:56147ab47a6d12b4d83de2bab29ca410
butch2017-01-03d02t02.flac:1774bcd77ee1dc95e5117ccb4e9e6081
butch2017-01-03d02t03.flac:cb1173241151e56f2dca27f7db24b9fd
butch2017-01-03d02t04.flac:c364a3097557e7a803351fd19e5adfeb
butch2017-01-03d02t05.flac:b85f0e5f5c32064a168d4a7ff5ae8637
butch2017-01-03d02t06.flac:3a26a3170836a55fa51e3de6b0131319
butch2017-01-03d02t07.flac:0ea2ad1453aeb0bd41236ca21984968e
butch2017-01-03d02t08.flac:ba78f910d3ac2c8d30443d19d7837843

 length     expanded size    cdr  WAVE problems  fmt   ratio  filename
     6:03.17       64073228 B   ---   --   ---xx   flac  0.5620  butch2017-01-03d01t01.flac
     3:57.68       41966780 B   ---   --   ---xx   flac  0.5020  butch2017-01-03d01t02.flac
    11:21.74      120302492 B   ---   --   ---xx   flac  0.5119  butch2017-01-03d01t03.flac
     3:13.51       34165196 B   ---   --   ---xx   flac  0.3385  butch2017-01-03d01t04.flac
     4:49.03       50986700 B   ---   --   ---xx   flac  0.4443  butch2017-01-03d01t05.flac
     6:52.27       72740348 B   ---   --   ---xx   flac  0.4948  butch2017-01-03d01t06.flac
    11:34.00      122421644 B   ---   --   ---xx   flac  0.4855  butch2017-01-03d01t07.flac
     5:32.08       58583660 B   ---   --   ---xx   flac  0.4672  butch2017-01-03d01t08.flac
    15:23.06      162831356 B   ---   --   ---xx   flac  0.5271  butch2017-01-03d01t09.flac
     5:02.42       53371628 B   ---   --   ---xx   flac  0.4671  butch2017-01-03d02t01.flac
     3:32.71       37563836 B   ---   --   ---xx   flac  0.3013  butch2017-01-03d02t02.flac
    13:13.36      139969916 B   ---   --   ---xx   flac  0.4903  butch2017-01-03d02t03.flac
     5:08.47       54441788 B   ---   --   ---xx   flac  0.5132  butch2017-01-03d02t04.flac
     8:39.14       91584572 B   ---   --   ---xx   flac  0.5294  butch2017-01-03d02t05.flac
    10:52.65      115165724 B   ---   --   ---xx   flac  0.5390  butch2017-01-03d02t06.flac
     2:55.36       30954716 B   ---   --   ---xx   flac  0.4340  butch2017-01-03d02t07.flac
     2:02.28       21586700 B   ---   --   ---xx   flac  0.4282  butch2017-01-03d02t08.flac
   120:14.68     1272710284 B                            0.4931  (17 files)






More information about the bittorrent mailing list